  0
SECTION
  2
HEADER
  9
$ACADVER
  1
AC1015
  9
$ACADMAINTVER
 70
     6
  9
$DWGCODEPAGE
  3
ANSI_1252
  9
$INSBASE
 10
0.0
 20
0.0
 30
0.0
  9
$EXTMIN
 10
0.0
 20
0.0
 30
0.0
  9
$EXTMAX
 10
594.0000000000002
 20
420.0000000000002
 30
0.0
  9
$LIMMIN
 10
0.0
 20
0.0
  9
$LIMMAX
 10
12.0
 20
9.0
  9
$ORTHOMODE
 70
     0
  9
$REGENMODE
 70
     1
  9
$FILLMODE
 70
     1
  9
$QTEXTMODE
 70
     0
  9
$MIRRTEXT
 70
     1
  9
$LTSCALE
 40
1.0
  9
$ATTMODE
 70
     1
  9
$TEXTSIZE
 40
0.2
  9
$TRACEWID
 40
0.05
  9
$TEXTSTYLE
  7
Standard
  9
$CLAYER
  8
0
  9
$CELTYPE
  6
ByLayer
  9
$CECOLOR
 62
   256
  9
$CELTSCALE
 40
1.0
  9
$DISPSILH
 70
     0
  9
$DIMSCALE
 40
1.0
  9
$DIMASZ
 40
0.18
  9
$DIMEXO
 40
0.0625
  9
$DIMDLI
 40
0.38
  9
$DIMRND
 40
0.0
  9
$DIMDLE
 40
0.0
  9
$DIMEXE
 40
0.18
  9
$DIMTP
 40
0.0
  9
$DIMTM
 40
0.0
  9
$DIMTXT
 40
0.18
  9
$DIMCEN
 40
0.09
  9
$DIMTSZ
 40
0.0
  9
$DIMTOL
 70
     0
  9
$DIMLIM
 70
     0
  9
$DIMTIH
 70
     1
  9
$DIMTOH
 70
     1
  9
$DIMSE1
 70
     0
  9
$DIMSE2
 70
     0
  9
$DIMTAD
 70
     0
  9
$DIMZIN
 70
     0
  9
$DIMBLK
  1

  9
$DIMASO
 70
     1
  9
$DIMSHO
 70
     1
  9
$DIMPOST
  1

  9
$DIMAPOST
  1

  9
$DIMALT
 70
     0
  9
$DIMALTD
 70
     2
  9
$DIMALTF
 40
25.4
  9
$DIMLFAC
 40
1.0
  9
$DIMTOFL
 70
     0
  9
$DIMTVP
 40
0.0
  9
$DIMTIX
 70
     0
  9
$DIMSOXD
 70
     0
  9
$DIMSAH
 70
     0
  9
$DIMBLK1
  1

  9
$DIMBLK2
  1

  9
$DIMSTYLE
  2
Standard
  9
$DIMCLRD
 70
     0
  9
$DIMCLRE
 70
     0
  9
$DIMCLRT
 70
     0
  9
$DIMTFAC
 40
1.0
  9
$DIMGAP
 40
0.09
  9
$DIMJUST
 70
     0
  9
$DIMSD1
 70
     0
  9
$DIMSD2
 70
     0
  9
$DIMTOLJ
 70
     1
  9
$DIMTZIN
 70
     0
  9
$DIMALTZ
 70
     0
  9
$DIMALTTZ
 70
     0
  9
$DIMUPT
 70
     0
  9
$DIMDEC
 70
     4
  9
$DIMTDEC
 70
     4
  9
$DIMALTU
 70
     2
  9
$DIMALTTD
 70
     2
  9
$DIMTXSTY
  7
Standard
  9
$DIMAUNIT
 70
     0
  9
$DIMADEC
 70
     0
  9
$DIMALTRND
 40
0.0
  9
$DIMAZIN
 70
     0
  9
$DIMDSEP
 70
    46
  9
$DIMATFIT
 70
     3
  9
$DIMFRAC
 70
     0
  9
$DIMLDRBLK
  1

  9
$DIMLUNIT
 70
     2
  9
$DIMLWD
 70
    -2
  9
$DIMLWE
 70
    -2
  9
$DIMTMOVE
 70
     0
  9
$LUNITS
 70
     2
  9
$LUPREC
 70
     4
  9
$SKETCHINC
 40
0.1
  9
$FILLETRAD
 40
0.5
  9
$AUNITS
 70
     0
  9
$AUPREC
 70
     0
  9
$MENU
  1
.
  9
$ELEVATION
 40
0.0
  9
$PELEVATION
 40
0.0
  9
$THICKNESS
 40
0.0
  9
$LIMCHECK
 70
     0
  9
$CHAMFERA
 40
0.5
  9
$CHAMFERB
 40
0.5
  9
$CHAMFERC
 40
1.0
  9
$CHAMFERD
 40
0.0
  9
$SKPOLY
 70
     0
  9
$TDCREATE
 40
2456997.611363542
  9
$TDUCREATE
 40
2456997.569696875
  9
$TDUPDATE
 40
2456997.6113639
  9
$TDUUPDATE
 40
2456997.569697234
  9
$TDINDWG
 40
0.0000000116
  9
$TDUSRTIMER
 40
0.0000000116
  9
$USRTIMER
 70
     1
  9
$ANGBASE
 50
0.0
  9
$ANGDIR
 70
     0
  9
$PDMODE
 70
     0
  9
$PDSIZE
 40
0.0
  9
$PLINEWID
 40
0.0
  9
$SPLFRAME
 70
     0
  9
$SPLINETYPE
 70
     6
  9
$SPLINESEGS
 70
     8
  9
$HANDSEED
  5
39D
  9
$SURFTAB1
 70
     6
  9
$SURFTAB2
 70
     6
  9
$SURFTYPE
 70
     6
  9
$SURFU
 70
     6
  9
$SURFV
 70
     6
  9
$UCSBASE
  2

  9
$UCSNAME
  2

  9
$UCSORG
 10
0.0
 20
0.0
 30
0.0
  9
$UCSXDIR
 10
1.0
 20
0.0
 30
0.0
  9
$UCSYDIR
 10
0.0
 20
1.0
 30
0.0
  9
$UCSORTHOREF
  2

  9
$UCSORTHOVIEW
 70
     0
  9
$UCSORGTOP
 10
0.0
 20
0.0
 30
0.0
  9
$UCSORGBOTTOM
 10
0.0
 20
0.0
 30
0.0
  9
$UCSORGLEFT
 10
0.0
 20
0.0
 30
0.0
  9
$UCSORGRIGHT
 10
0.0
 20
0.0
 30
0.0
  9
$UCSORGFRONT
 10
0.0
 20
0.0
 30
0.0
  9
$UCSORGBACK
 10
0.0
 20
0.0
 30
0.0
  9
$PUCSBASE
  2

  9
$PUCSNAME
  2

  9
$PUCSORG
 10
0.0
 20
0.0
 30
0.0
  9
$PUCSXDIR
 10
1.0
 20
0.0
 30
0.0
  9
$PUCSYDIR
 10
0.0
 20
1.0
 30
0.0
  9
$PUCSORTHOREF
  2

  9
$PUCSORTHOVIEW
 70
     0
  9
$PUCSORGTOP
 10
0.0
 20
0.0
 30
0.0
  9
$PUCSORGBOTTOM
 10
0.0
 20
0.0
 30
0.0
  9
$PUCSORGLEFT
 10
0.0
 20
0.0
 30
0.0
  9
$PUCSORGRIGHT
 10
0.0
 20
0.0
 30
0.0
  9
$PUCSORGFRONT
 10
0.0
 20
0.0
 30
0.0
  9
$PUCSORGBACK
 10
0.0
 20
0.0
 30
0.0
  9
$USERI1
 70
     0
  9
$USERI2
 70
     0
  9
$USERI3
 70
     0
  9
$USERI4
 70
     0
  9
$USERI5
 70
     0
  9
$USERR1
 40
18.1
  9
$USERR2
 40
0.0
  9
$USERR3
 40
0.0
  9
$USERR4
 40
0.0
  9
$USERR5
 40
0.0
  9
$WORLDVIEW
 70
     1
  9
$SHADEDGE
 70
     3
  9
$SHADEDIF
 70
    70
  9
$TILEMODE
 70
     1
  9
$MAXACTVP
 70
    64
  9
$PINSBASE
 10
0.0
 20
0.0
 30
0.0
  9
$PLIMCHECK
 70
     0
  9
$PEXTMIN
 10
1.00000000000000E+20
 20
1.00000000000000E+20
 30
1.00000000000000E+20
  9
$PEXTMAX
 10
-1.00000000000000E+20
 20
-1.00000000000000E+20
 30
-1.00000000000000E+20
  9
$PLIMMIN
 10
0.0
 20
0.0
  9
$PLIMMAX
 10
12.0
 20
9.0
  9
$UNITMODE
 70
     0
  9
$VISRETAIN
 70
     1
  9
$PLINEGEN
 70
     0
  9
$PSLTSCALE
 70
     1
  9
$TREEDEPTH
 70
  3020
  9
$CMLSTYLE
  2
Standard
  9
$CMLJUST
 70
     0
  9
$CMLSCALE
 40
1.0
  9
$PROXYGRAPHICS
 70
     1
  9
$MEASUREMENT
 70
     1
  9
$CELWEIGHT
370
    -1
  9
$ENDCAPS
280
     0
  9
$JOINSTYLE
280
     0
  9
$LWDISPLAY
290
     0
  9
$INSUNITS
 70
     4
  9
$HYPERLINKBASE
  1

  9
$STYLESHEET
  1

  9
$XEDIT
290
     1
  9
$CEPSNTYPE
380
     0
  9
$PSTYLEMODE
290
     1
  9
$FINGERPRINTGUID
  2
{12E0ACC3-AFFD-4C58-A0F3-8051D4C2D035}
  9
$VERSIONGUID
  2
{FAEB1C32-E019-11D5-929B-00C0DF256EC4}
  9
$EXTNAMES
290
     1
  9
$PSVPSCALE
 40
0.0
  9
$OLESTARTUP
290
     0
  0
ENDSEC
  0
SECTION
  2
CLASSES
  0
CLASS
  1
ACDBDICTIONARYWDFLT
  2
AcDbDictionaryWithDefault
  3
ObjectDBX Classes
 90
        0
280
     0
281
     0
  0
CLASS
  1
VISUALSTYLE
  2
AcDbVisualStyle
  3
ObjectDBX Classes
 90
     4095
280
     0
281
     0
  0
CLASS
  1
MATERIAL
  2
AcDbMaterial
  3
ObjectDBX Classes
 90
     1153
280
     0
281
     0
  0
CLASS
  1
DICTIONARYVAR
  2
AcDbDictionaryVar
  3
ObjectDBX Classes
 90
        0
280
     0
281
     0
  0
CLASS
  1
ACDBPLACEHOLDER
  2
AcDbPlaceHolder
  3
ObjectDBX Classes
 90
        0
280
     0
281
     0
  0
CLASS
  1
LAYOUT
  2
AcDbLayout
  3
ObjectDBX Classes
 90
        0
280
     0
281
     0
  0
ENDSEC
  0
SECTION
  2
TABLES
  0
TABLE
  2
VPORT
  5
8
330
0
100
AcDbSymbolTable
 70
     1
  0
VPORT
  5
29
330
8
100
AcDbSymbolTableRecord
100
AcDbViewportTableRecord
  2
*Active
 70
     0
 10
0.0
 20
0.0
 11
1.0
 21
1.0
 12
297.0000000000001
 22
210.0000000000001
 13
0.0
 23
0.0
 14
0.5
 24
0.5
 15
0.5
 25
0.5
 16
0.0
 26
0.0
 36
1.0
 17
0.0
 27
0.0
 37
0.0
 40
462.0000000000003
 41
1.60267857142857
 42
50.0
 43
0.0
 44
0.0
 50
0.0
 51
0.0
 71
     0
 72
   100
 73
     1
 74
     3
 75
     0
 76
     0
 77
     0
 78
     0
281
     0
 65
     1
110
0.0
120
0.0
130
0.0
111
1.0
121
0.0
131
0.0
112
0.0
122
1.0
132
0.0
 79
     0
146
0.0
  0
ENDTAB
  0
TABLE
  2
LTYPE
  5
5
330
0
100
AcDbSymbolTable
 70
     8
  0
LTYPE
  5
14
330
5
100
AcDbSymbolTableRecord
100
AcDbLinetypeTableRecord
  2
ByBlock
 70
     0
  3

 72
    65
 73
     0
 40
0.0
  0
LTYPE
  5
15
330
5
100
AcDbSymbolTableRecord
100
AcDbLinetypeTableRecord
  2
ByLayer
 70
     0
  3

 72
    65
 73
     0
 40
0.0
  0
LTYPE
  5
16
330
5
100
AcDbSymbolTableRecord
100
AcDbLinetypeTableRecord
  2
Continuous
 70
     0
  3
Solid line
 72
    65
 73
     0
 40
0.0
  0
LTYPE
  5
3F
330
5
100
AcDbSymbolTableRecord
100
AcDbLinetypeTableRecord
  2
DASHED
 70
     0
  3
Dashed
 72
    65
 73
     2
 40
15.0
 49
7.0
 74
     0
 49
-8.0
 74
     0
  0
LTYPE
  5
40
330
5
100
AcDbSymbolTableRecord
100
AcDbLinetypeTableRecord
  2
DOTTED
 70
     0
  3
Dotted
 72
    65
 73
     2
 40
1.0
 49
0.0
 74
     0
 49
-1.0
 74
     0
  0
LTYPE
  5
41
330
5
100
AcDbSymbolTableRecord
100
AcDbLinetypeTableRecord
  2
DOT_CENTER
 70
     0
  3
Dot_Center
 72
    65
 73
     4
 40
14.0
 49
12.0
 74
     0
 49
-1.0
 74
     0
 49
0.0
 74
     0
 49
-1.0
 74
     0
  0
LTYPE
  5
42
330
5
100
AcDbSymbolTableRecord
100
AcDbLinetypeTableRecord
  2
LONG_DASHED
 70
     0
  3
Long_Dashed
 72
    65
 73
     2
 40
15.0
 49
10.0
 74
     0
 49
-5.0
 74
     0
  0
LTYPE
  5
43
330
5
100
AcDbSymbolTableRecord
100
AcDbLinetypeTableRecord
  2
DASH_CENTER
 70
     0
  3
Dash_Center
 72
    65
 73
     4
 40
14.0
 49
11.0
 74
     0
 49
-1.0
 74
     0
 49
1.0
 74
     0
 49
-1.0
 74
     0
  0
LTYPE
  5
44
330
5
100
AcDbSymbolTableRecord
100
AcDbLinetypeTableRecord
  2
PHANTOM
 70
     0
  3
Phantom
 72
    65
 73
     6
 40
13.0
 49
10.0
 74
     0
 49
-1.0
 74
     0
 49
0.0
 74
     0
 49
-1.0
 74
     0
 49
0.0
 74
     0
 49
-1.0
 74
     0
  0
LTYPE
  5
45
330
5
100
AcDbSymbolTableRecord
100
AcDbLinetypeTableRecord
  2
CENTER_DASH_DASH
 70
     0
  3
Center_Dash_Dash
 72
    65
 73
     6
 40
14.0
 49
9.0
 74
     0
 49
-1.0
 74
     0
 49
1.0
 74
     0
 49
-1.0
 74
     0
 49
1.0
 74
     0
 49
-1.0
 74
     0
  0
ENDTAB
  0
TABLE
  2
LAYER
  5
2
330
0
100
AcDbSymbolTable
 70
     4
  0
LAYER
  5
10
330
2
100
AcDbSymbolTableRecord
100
AcDbLayerTableRecord
  2
0
 70
     0
 62
     7
  6
Continuous
370
    -3
390
F
  0
LAYER
  5
46
330
2
100
AcDbSymbolTableRecord
100
AcDbLayerTableRecord
  2
1
 70
     0
 62
     7
  6
Continuous
370
    -3
390
F
  0
LAYER
  5
47
330
2
100
AcDbSymbolTableRecord
100
AcDbLayerTableRecord
  2
Sichtbare_Kanten_TC_020513_DIN_
 70
     0
 62
     7
  6
Continuous
370
    -3
390
F
  0
LAYER
  5
48
330
2
100
AcDbSymbolTableRecord
100
AcDbLayerTableRecord
  2
Symbole_TC_020513_DIN_
 70
     0
 62
     7
  6
Continuous
370
    -3
390
F
  0
ENDTAB
  0
TABLE
  2
STYLE
  5
3
330
0
100
AcDbSymbolTable
 70
     5
  0
STYLE
  5
11
330
3
100
AcDbSymbolTableRecord
100
AcDbTextStyleTableRecord
  2
Standard
 70
     0
 40
0.0
 41
1.0
 50
0.0
 71
     0
 42
0.2
  3
txt
  4

  0
STYLE
  5
99
330
3
100
AcDbSymbolTableRecord
100
AcDbTextStyleTableRecord
  2
CONVERTER_11
 70
     0
 40
0.0
 41
1.2
 50
0.0
 71
     0
 42
0.2
  3
ARIAL.TTF
  4

  0
STYLE
  5
9C
330
3
100
AcDbSymbolTableRecord
100
AcDbTextStyleTableRecord
  2
CONVERTER_12
 70
     0
 40
0.0
 41
1.08
 50
0.0
 71
     0
 42
0.2
  3
ARIAL.TTF
  4

  0
STYLE
  5
9F
330
3
100
AcDbSymbolTableRecord
100
AcDbTextStyleTableRecord
  2
CONVERTER_13
 70
     0
 40
0.0
 41
1.38
 50
0.0
 71
     0
 42
0.2
  3
ARIAL.TTF
  4

  0
STYLE
  5
2F3
330
3
100
AcDbSymbolTableRecord
100
AcDbTextStyleTableRecord
  2
CONVERTER_14
 70
     0
 40
0.0
 41
0.95
 50
0.0
 71
     0
 42
0.2
  3
simplex.shx
  4

  0
ENDTAB
  0
TABLE
  2
VIEW
  5
6
330
0
100
AcDbSymbolTable
 70
     0
  0
ENDTAB
  0
TABLE
  2
UCS
  5
7
330
0
100
AcDbSymbolTable
 70
     0
  0
ENDTAB
  0
TABLE
  2
APPID
  5
9
330
0
100
AcDbSymbolTable
 70
     1
  0
APPID
  5
12
330
9
100
AcDbSymbolTableRecord
100
AcDbRegAppTableRecord
  2
ACAD
 70
     0
  0
ENDTAB
  0
TABLE
  2
DIMSTYLE
  5
A
330
0
100
AcDbSymbolTable
 70
    12
100
AcDbDimStyleTable
  0
DIMSTYLE
105
27
330
A
100
AcDbSymbolTableRecord
100
AcDbDimStyleTableRecord
  2
Standard
 70
     0
178
     0
340
11
  0
DIMSTYLE
105
2F7
102
{ACAD_REACTORS
330
2F8
102
}
330
A
100
AcDbSymbolTableRecord
100
AcDbDimStyleTableRecord
  2
ME10_DIM_10
 70
     0
 41
6.0
 42
1.0
 44
2.0
 73
     0
 74
     0
 77
     1
 78
     8
140
6.0
147
4.0
172
     1
173
     1
174
     1
175
     1
176
     2
177
     2
271
     2
178
     4
271
     2
340
2F3
  0
DIMSTYLE
105
302
102
{ACAD_REACTORS
330
303
102
}
330
A
100
AcDbSymbolTableRecord
100
AcDbDimStyleTableRecord
  2
ME10_DIM_11
 70
     0
 41
6.0
 42
1.0
 44
2.0
 73
     0
 74
     0
 77
     1
 78
     8
140
6.0
147
4.0
172
     1
173
     1
174
     1
175
     1
176
     2
177
     2
271
     2
178
     4
271
     2
340
2F3
  0
DIMSTYLE
105
30D
102
{ACAD_REACTORS
330
30E
102
}
330
A
100
AcDbSymbolTableRecord
100
AcDbDimStyleTableRecord
  2
ME10_DIM_12
 70
     0
 41
6.0
 42
1.0
 44
2.0
 73
     0
 74
     0
 77
     1
 78
     8
140
6.0
147
4.0
172
     1
173
     1
174
     1
175
     1
176
     2
177
     2
271
     2
178
     4
271
     2
340
2F3
  0
DIMSTYLE
105
318
102
{ACAD_REACTORS
330
319
102
}
330
A
100
AcDbSymbolTableRecord
100
AcDbDimStyleTableRecord
  2
ME10_DIM_13
 70
     0
 41
6.0
 42
1.0
 44
2.0
 73
     0
 74
     0
 77
     1
 78
     8
140
6.0
147
4.0
172
     1
173
     1
174
     1
175
     1
176
     2
177
     2
271
     2
178
     4
271
     2
340
2F3
  0
DIMSTYLE
105
325
102
{ACAD_REACTORS
330
326
102
}
330
A
100
AcDbSymbolTableRecord
100
AcDbDimStyleTableRecord
  2
ME10_DIM_14
 70
     0
 41
6.0
 42
1.0
 44
2.0
 73
     0
 74
     0
 77
     1
 78
     8
140
6.0
147
4.0
172
     1
173
     1
174
     1
175
     1
176
     2
177
     2
271
     2
178
     4
271
     2
340
2F3
  0
DIMSTYLE
105
330
102
{ACAD_REACTORS
330
331
102
}
330
A
100
AcDbSymbolTableRecord
100
AcDbDimStyleTableRecord
  2
ME10_DIM_15
 70
     0
 41
6.0
 42
1.0
 44
2.0
 73
     0
 74
     0
 77
     1
 78
     8
140
6.0
147
4.0
172
     1
173
     1
174
     1
175
     1
176
     2
177
     2
271
     2
178
     4
271
     2
340
2F3
  0
DIMSTYLE
105
33B
102
{ACAD_REACTORS
330
33C
102
}
330
A
100
AcDbSymbolTableRecord
100
AcDbDimStyleTableRecord
  2
ME10_DIM_16
 70
     0
 41
6.0
 42
1.0
 44
2.0
 73
     0
 74
     0
 77
     1
 78
     8
140
6.0
147
4.0
172
     1
173
     1
174
     1
175
     1
176
     2
177
     2
271
     2
178
     4
271
     2
340
2F3
  0
DIMSTYLE
105
346
102
{ACAD_REACTORS
330
347
102
}
330
A
100
AcDbSymbolTableRecord
100
AcDbDimStyleTableRecord
  2
ME10_DIM_17
 70
     0
 41
6.0
 42
1.0
 44
2.0
 73
     0
 74
     0
 77
     1
 78
     8
140
6.0
147
4.0
172
     1
173
     1
174
     1
175
     1
176
     2
177
     2
271
     2
178
     4
271
     2
340
2F3
  0
DIMSTYLE
105
351
102
{ACAD_REACTORS
330
352
102
}
330
A
100
AcDbSymbolTableRecord
100
AcDbDimStyleTableRecord
  2
ME10_DIM_18
 70
     0
 41
6.0
 42
1.0
 44
2.0
 73
     0
 74
     0
 77
     1
 78
     8
140
6.0
147
4.0
172
     1
173
     1
174
     1
175
     1
176
     2
177
     2
271
     2
178
     4
271
     2
340
2F3
  0
DIMSTYLE
105
35C
102
{ACAD_REACTORS
330
35D
102
}
330
A
100
AcDbSymbolTableRecord
100
AcDbDimStyleTableRecord
  2
ME10_DIM_19
 70
     0
 41
6.0
 42
1.0
 44
2.0
 73
     0
 74
     0
 77
     1
 78
     8
140
6.0
147
4.0
172
     1
173
     1
174
     1
175
     1
176
     2
177
     2
271
     2
178
     4
271
     2
340
2F3
  0
DIMSTYLE
105
367
102
{ACAD_REACTORS
330
368
102
}
330
A
100
AcDbSymbolTableRecord
100
AcDbDimStyleTableRecord
  2
ME10_DIM_20
 70
     0
 41
6.0
 42
1.0
 44
2.0
 73
     0
 74
     0
 77
     1
 78
     8
140
6.0
147
4.0
172
     1
173
     1
174
     1
175
     1
176
     2
177
     2
271
     2
178
     4
271
     2
340
2F3
  0
ENDTAB
  0
TABLE
  2
BLOCK_RECORD
  5
1
330
0
100
AcDbSymbolTable
 70
    14
  0
BLOCK_RECORD
  5
1F
330
1
100
AcDbSymbolTableRecord
100
AcDbBlockTableRecord
  2
*Model_Space
340
22
  0
BLOCK_RECORD
  5
1B
330
1
100
AcDbSymbolTableRecord
100
AcDbBlockTableRecord
  2
*Paper_Space
340
1E
  0
BLOCK_RECORD
  5
23
330
1
100
AcDbSymbolTableRecord
100
AcDbBlockTableRecord
  2
*Paper_Space0
340
26
  0
BLOCK_RECORD
  5
49
330
1
100
AcDbSymbolTableRecord
100
AcDbBlockTableRecord
  2
_formato_A4
340
0
102
{BLKREFS
331
4C
102
}
  0
BLOCK_RECORD
  5
2ED
330
1
100
AcDbSymbolTableRecord
100
AcDbBlockTableRecord
  2
*D2
340
0
  0
BLOCK_RECORD
  5
2F9
330
1
100
AcDbSymbolTableRecord
100
AcDbBlockTableRecord
  2
*D3
340
0
  0
BLOCK_RECORD
  5
304
330
1
100
AcDbSymbolTableRecord
100
AcDbBlockTableRecord
  2
*D4
340
0
  0
BLOCK_RECORD
  5
30F
330
1
100
AcDbSymbolTableRecord
100
AcDbBlockTableRecord
  2
*D5
340
0
  0
BLOCK_RECORD
  5
31A
330
1
100
AcDbSymbolTableRecord
100
AcDbBlockTableRecord
  2
*D6
340
0
  0
BLOCK_RECORD
  5
327
330
1
100
AcDbSymbolTableRecord
100
AcDbBlockTableRecord
  2
*D7
340
0
  0
BLOCK_RECORD
  5
332
330
1
100
AcDbSymbolTableRecord
100
AcDbBlockTableRecord
  2
*D8
340
0
  0
BLOCK_RECORD
  5
33D
330
1
100
AcDbSymbolTableRecord
100
AcDbBlockTableRecord
  2
*D9
340
0
  0
BLOCK_RECORD
  5
348
330
1
100
AcDbSymbolTableRecord
100
AcDbBlockTableRecord
  2
*D10
340
0
  0
BLOCK_RECORD
  5
353
330
1
100
AcDbSymbolTableRecord
100
AcDbBlockTableRecord
  2
*D11
340
0
  0
BLOCK_RECORD
  5
35E
330
1
100
AcDbSymbolTableRecord
100
AcDbBlockTableRecord
  2
*D12
340
0
  0
BLOCK_RECORD
  5
369
330
1
100
AcDbSymbolTableRecord
100
AcDbBlockTableRecord
  2
*D13
340
0
102
{BLKREFS
331
371
102
}
  0
ENDTAB
  0
ENDSEC
  0
SECTION
  2
BLOCKS
  0
BLOCK
  5
20
330
1F
100
AcDbEntity
  8
0
100
AcDbBlockBegin
  2
*Model_Space
 70
     0
 10
0.0
 20
0.0
 30
0.0
  3
*Model_Space
  1

  0
ENDBLK
  5
21
330
1F
100
AcDbEntity
  8
0
100
AcDbBlockEnd
  0
BLOCK
  5
1C
330
1B
100
AcDbEntity
 67
     1
  8
0
100
AcDbBlockBegin
  2
*Paper_Space
 70
     0
 10
0.0
 20
0.0
 30
0.0
  3
*Paper_Space
  1

  0
ENDBLK
  5
1D
330
1B
100
AcDbEntity
 67
     1
  8
0
100
AcDbBlockEnd
  0
BLOCK
  5
24
330
23
100
AcDbEntity
  8
0
100
AcDbBlockBegin
  2
*Paper_Space0
 70
     0
 10
0.0
 20
0.0
 30
0.0
  3
*Paper_Space0
  1

  0
ENDBLK
  5
25
330
23
100
AcDbEntity
  8
0
100
AcDbBlockEnd
  0
BLOCK
  5
4A
330
49
100
AcDbEntity
  8
0
100
AcDbBlockBegin
  2
_formato_A4
 70
     0
 10
297.0000000000001
 20
0.0
 30
0.0
  3
_formato_A4
  1

  0
LINE
  5
4D
330
49
100
AcDbEntity
  8
1
  6
Continuous
 62
     7
100
AcDbLine
 10
108.0000000000001
 20
4.99999999999989
 30
0.0
 11
108.0000000000001
 21
40.0
 31
0.0
  0
LINE
  5
4E
330
49
100
AcDbEntity
  8
1
  6
Continuous
 62
     7
100
AcDbLine
 10
108.0000000000001
 20
20.0
 30
0.0
 11
292.0000000000001
 21
20.0
 31
0.0
  0
LINE
  5
4F
330
49
100
AcDbEntity
  8
1
  6
Continuous
 62
     7
100
AcDbLine
 10
4.99999999999989
 20
189.0
 30
0.0
 11
4.99999999999989
 21
5.0
 31
0.0
  0
LINE
  5
50
330
49
100
AcDbEntity
  8
1
  6
Continuous
 62
     7
100
AcDbLine
 10
133.0000000000002
 20
35.0
 30
0.0
 11
133.0000000000002
 21
40.0
 31
0.0
  0
LINE
  5
51
330
49
100
AcDbEntity
  8
1
  6
Continuous
 62
     7
100
AcDbLine
 10
115.0000000000001
 20
35.0
 30
0.0
 11
115.0000000000001
 21
40.0
 31
0.0
  0
LINE
  5
52
330
49
100
AcDbEntity
  8
1
  6
Continuous
 62
     7
100
AcDbLine
 10
108.0000000000001
 20
40.0
 30
0.0
 11
292.0000000000001
 21
40.0
 31
0.0
  0
LINE
  5
53
330
49
100
AcDbEntity
  8
1
  6
Continuous
 62
     7
100
AcDbLine
 10
133.0000000000002
 20
30.0
 30
0.0
 11
133.0000000000002
 21
35.0
 31
0.0
  0
LINE
  5
54
330
49
100
AcDbEntity
  8
1
  6
Continuous
 62
     7
100
AcDbLine
 10
115.0000000000001
 20
30.0
 30
0.0
 11
115.0000000000001
 21
35.0
 31
0.0
  0
LINE
  5
55
330
49
100
AcDbEntity
  8
1
  6
Continuous
 62
     7
100
AcDbLine
 10
108.0000000000001
 20
35.0
 30
0.0
 11
292.0000000000001
 21
35.0
 31
0.0
  0
LINE
  5
56
330
49
100
AcDbEntity
  8
1
  6
Continuous
 62
     7
100
AcDbLine
 10
133.0000000000002
 20
25.0
 30
0.0
 11
133.0000000000002
 21
30.0
 31
0.0
  0
LINE
  5
57
330
49
100
AcDbEntity
  8
1
  6
Continuous
 62
     7
100
AcDbLine
 10
115.0000000000001
 20
25.0
 30
0.0
 11
115.0000000000001
 21
30.0
 31
0.0
  0
LINE
  5
58
330
49
100
AcDbEntity
  8
1
  6
Continuous
 62
     7
100
AcDbLine
 10
108.0000000000001
 20
30.0
 30
0.0
 11
292.0000000000001
 21
30.0
 31
0.0
  0
LINE
  5
59
330
49
100
AcDbEntity
  8
1
  6
Continuous
 62
     7
100
AcDbLine
 10
133.0000000000002
 20
20.0
 30
0.0
 11
133.0000000000002
 21
25.0
 31
0.0
  0
LINE
  5
5A
330
49
100
AcDbEntity
  8
1
  6
Continuous
 62
     7
100
AcDbLine
 10
115.0000000000001
 20
20.0
 30
0.0
 11
115.0000000000001
 21
25.0
 31
0.0
  0
LINE
  5
5B
330
49
100
AcDbEntity
  8
1
  6
Continuous
 62
     7
100
AcDbLine
 10
108.0000000000001
 20
25.0
 30
0.0
 11
292.0000000000001
 21
25.0
 31
0.0
  0
LINE
  5
5C
102
{ACAD_REACTORS
330
A5
102
}
330
49
100
AcDbEntity
  8
1
  6
Continuous
 62
     7
100
AcDbLine
 10
282.8428748399059
 20
10.55800208038033
 30
0.0
 11
281.5095415065727
 21
9.78877131114973
 31
0.0
  0
LINE
  5
5D
102
{ACAD_REACTORS
330
A5
102
}
330
49
100
AcDbEntity
  8
1
  6
Continuous
 62
     7
100
AcDbLine
 10
281.6763006887428
 20
10.65463653264794
 30
0.0
 11
282.5097265375796
 21
11.13545913774624
 31
0.0
  0
LINE
  5
5E
102
{ACAD_REACTORS
330
A5
102
}
330
49
100
AcDbEntity
  8
1
  6
Continuous
 62
     7
100
AcDbLine
 10
281.6763006887428
 20
12.16666666666663
 30
0.0
 11
281.6763006887428
 21
10.65463653264794
 31
0.0
  0
LINE
  5
5F
102
{ACAD_REACTORS
330
A5
102
}
330
49
100
AcDbEntity
  8
1
  6
Continuous
 62
     7
100
AcDbLine
 10
282.6763006887428
 20
12.16666666666663
 30
0.0
 11
281.6763006887428
 21
12.16666666666663
 31
0.0
  0
LINE
  5
60
102
{ACAD_REACTORS
330
A5
102
}
330
49
100
AcDbEntity
  8
1
  6
Continuous
 62
     7
100
AcDbLine
 10
281.6763006887428
 20
12.83333333333326
 30
0.0
 11
282.6763006887428
 21
12.83333333333326
 31
0.0
  0
LINE
  5
61
102
{ACAD_REACTORS
330
A5
102
}
330
49
100
AcDbEntity
  8
1
  6
Continuous
 62
     7
100
AcDbLine
 10
281.6763006887428
 20
14.34536346735195
 30
0.0
 11
281.6763006887428
 21
12.83333333333326
 31
0.0
  0
LINE
  5
62
102
{ACAD_REACTORS
330
A5
102
}
330
49
100
AcDbEntity
  8
1
  6
Continuous
 62
     7
100
AcDbLine
 10
282.5097265375796
 20
13.86454086225376
 30
0.0
 11
281.6763006887428
 21
14.34536346735195
 31
0.0
  0
LINE
  5
63
102
{ACAD_REACTORS
330
A5
102
}
330
49
100
AcDbEntity
  8
1
  6
Continuous
 62
     7
100
AcDbLine
 10
281.5095415065727
 20
15.21122868885027
 30
0.0
 11
282.8428748399059
 21
14.44199791961944
 31
0.0
  0
LINE
  5
64
102
{ACAD_REACTORS
330
A6
102
}
330
49
100
AcDbEntity
  8
1
  6
Continuous
 62
     7
100
AcDbLine
 10
274.3429673554094
 20
10.84673060906323
 30
0.0
 11
274.3429673554094
 21
14.15326939093666
 31
0.0
  0
LINE
  5
65
102
{ACAD_REACTORS
330
A6
102
}
330
49
100
AcDbEntity
  8
1
  6
Continuous
 62
     7
100
AcDbLine
 10
275.0096340220761
 20
11.0392519172633
 30
0.0
 11
275.0096340220761
 21
10.84673060906323
 31
0.0
  0
LINE
  5
66
102
{ACAD_REACTORS
330
A6
102
}
330
49
100
AcDbEntity
  8
1
  6
Continuous
 62
     7
100
AcDbLine
 10
275.0096340220761
 20
14.15326939093666
 30
0.0
 11
275.0096340220761
 21
11.0392519172633
 31
0.0
  0
LINE
  5
67
102
{ACAD_REACTORS
330
A7
102
}
330
49
100
AcDbEntity
  8
1
  6
Continuous
 62
     7
100
AcDbLine
 10
278.1763932042462
 20
8.44261746499581
 30
0.0
 11
276.0098190530831
 21
9.69256409066691
 31
0.0
  0
LINE
  5
68
102
{ACAD_REACTORS
330
A7
102
}
330
49
100
AcDbEntity
  8
1
  6
Continuous
 62
     7
100
AcDbLine
 10
276.3429673554094
 20
10.2700211480327
 30
0.0
 11
278.5095415065727
 21
9.0200745223616
 31
0.0
  0
LINE
  5
69
102
{ACAD_REACTORS
330
A7
102
}
330
49
100
AcDbEntity
  8
1
  6
Continuous
 62
     7
100
AcDbLine
 10
276.3429673554094
 20
14.92250016016737
 30
0.0
 11
276.3429673554094
 21
10.2700211480327
 31
0.0
  0
LINE
  5
6A
102
{ACAD_REACTORS
330
A7
102
}
330
49
100
AcDbEntity
  8
1
  6
Continuous
 62
     7
100
AcDbLine
 10
275.6763006887428
 20
10.27002114803258
 30
0.0
 11
275.6763006887428
 21
14.92250016016737
 31
0.0
  0
LINE
  5
6B
102
{ACAD_REACTORS
330
A8
102
}
330
49
100
AcDbEntity
  8
1
  6
Continuous
 62
     7
100
AcDbLine
 10
279.8485336717861
 20
15.86370041827229
 30
0.0
 11
278.6763006887428
 21
13.83333333333326
 31
0.0
  0
LINE
  5
6C
102
{ACAD_REACTORS
330
A8
102
}
330
49
100
AcDbEntity
  8
1
  6
Continuous
 62
     7
100
AcDbLine
 10
280.3429673554094
 20
9.3082690706018
 30
0.0
 11
280.3429673554094
 21
15.73121731203457
 31
0.0
  0
LINE
  5
6D
102
{ACAD_REACTORS
330
A8
102
}
330
49
100
AcDbEntity
  8
1
  6
Continuous
 62
     7
100
AcDbLine
 10
279.6763006887428
 20
12.5
 30
0.0
 11
279.6763006887428
 21
9.3082690706018
 31
0.0
  0
LINE
  5
6E
102
{ACAD_REACTORS
330
A8
102
}
330
49
100
AcDbEntity
  8
1
  6
Continuous
 62
     7
100
AcDbLine
 10
277.6763006887428
 20
10.84758507263291
 30
0.0
 11
277.6763006887428
 21
12.5
 31
0.0
  0
LINE
  5
6F
102
{ACAD_REACTORS
330
A8
102
}
330
49
100
AcDbEntity
  8
1
  6
Continuous
 62
     7
100
AcDbLine
 10
277.0096340220761
 20
12.5
 30
0.0
 11
277.0096340220761
 21
10.84758507263291
 31
0.0
  0
LINE
  5
70
102
{ACAD_REACTORS
330
A8
102
}
330
49
100
AcDbEntity
  8
1
  6
Continuous
 62
     7
100
AcDbLine
 10
277.5040677056995
 20
15.86370041827229
 30
0.0
 11
278.6763006887428
 21
13.83333333333326
 31
0.0
  0
LINE
  5
71
102
{ACAD_REACTORS
330
A8
102
}
330
49
100
AcDbEntity
  8
1
  6
Continuous
 62
     7
100
AcDbLine
 10
277.0096340220761
 20
12.5
 30
0.0
 11
277.0096340220761
 21
15.73121731203457
 31
0.0
  0
LINE
  5
72
330
49
100
AcDbEntity
  8
1
  6
Continuous
 62
     7
100
AcDbLine
 10
278.6763006887428
 20
7.5
 30
0.0
 11
270.2598654136012
 21
12.35563573565855
 31
0.0
  0
LINE
  5
73
330
49
100
AcDbEntity
  8
1
  6
Continuous
 62
     7
100
AcDbLine
 10
287.0927359638843
 20
12.35563573565855
 30
0.0
 11
278.6763006887428
 21
7.5
 31
0.0
  0
LINE
  5
74
330
49
100
AcDbEntity
  8
1
  6
Continuous
 62
     7
100
AcDbLine
 10
278.6763006887428
 20
17.5
 30
0.0
 11
287.0927359638843
 21
12.64436426434133
 31
0.0
  0
LINE
  5
75
330
49
100
AcDbEntity
  8
1
  6
Continuous
 62
     7
100
AcDbLine
 10
270.2598654136012
 20
12.64436426434133
 30
0.0
 11
278.6763006887428
 21
17.5
 31
0.0
  0
LINE
  5
76
102
{ACAD_REACTORS
330
A8
102
}
330
49
100
AcDbEntity
  8
1
  6
Continuous
 62
     7
100
AcDbLine
 10
277.6763006887428
 20
14.23205080756884
 30
0.0
 11
277.6763006887428
 21
12.5
 31
0.0
  0
LINE
  5
77
102
{ACAD_REACTORS
330
A8
102
}
330
49
100
AcDbEntity
  8
1
  6
Continuous
 62
     7
100
AcDbLine
 10
278.5319631214453
 20
12.75
 30
0.0
 11
277.6763006887428
 21
14.23205080756884
 31
0.0
  0
LINE
  5
78
102
{ACAD_REACTORS
330
A8
102
}
330
49
100
AcDbEntity
  8
1
  6
Continuous
 62
     7
100
AcDbLine
 10
279.6763006887428
 20
14.23205080756884
 30
0.0
 11
278.8206382560402
 21
12.75
 31
0.0
  0
LINE
  5
79
102
{ACAD_REACTORS
330
A8
102
}
330
49
100
AcDbEntity
  8
1
  6
Continuous
 62
     7
100
AcDbLine
 10
279.6763006887428
 20
12.5
 30
0.0
 11
279.6763006887428
 21
14.23205080756884
 31
0.0
  0
LINE
  5
7A
102
{ACAD_REACTORS
330
A5
102
}
330
49
100
AcDbEntity
  8
1
  6
Continuous
 62
     7
100
AcDbLine
 10
281.0096340220762
 20
10.07749983983263
 30
0.0
 11
281.0096340220762
 21
14.92250016016737
 31
0.0
  0
LINE
  5
7B
330
49
100
AcDbEntity
  8
1
  6
Continuous
 62
     7
100
AcDbLine
 10
292.0000000000001
 20
189.0
 30
0.0
 11
4.99999999999989
 21
189.0
 31
0.0
  0
LINE
  5
7C
330
49
100
AcDbEntity
  8
1
  6
Continuous
 62
     7
100
AcDbLine
 10
292.0000000000001
 20
5.0
 30
0.0
 11
292.0000000000001
 21
189.0
 31
0.0
  0
LINE
  5
7D
330
49
100
AcDbEntity
  8
1
  6
Continuous
 62
     7
100
AcDbLine
 10
4.99999999999989
 20
5.0
 30
0.0
 11
292.0000000000001
 21
5.0
 31
0.0
  0
LINE
  5
7E
330
49
100
AcDbEntity
  8
1
  6
Continuous
 62
     7
100
AcDbLine
 10
297.0000000000001
 20
0.0
 30
0.0
 11
297.0000000000001
 21
210.0000000000001
 31
0.0
  0
LINE
  5
7F
330
49
100
AcDbEntity
  8
1
  6
Continuous
 62
     7
100
AcDbLine
 10
297.0000000000001
 20
210.0000000000001
 30
0.0
 11
0.0
 21
210.0000000000001
 31
0.0
  0
LINE
  5
80
330
49
100
AcDbEntity
  8
1
  6
Continuous
 62
     7
100
AcDbLine
 10
0.0
 20
210.0000000000001
 30
0.0
 11
0.0
 21
0.0
 31
0.0
  0
LINE
  5
81
330
49
100
AcDbEntity
  8
1
  6
Continuous
 62
     7
100
AcDbLine
 10
0.0
 20
0.0
 30
0.0
 11
297.0000000000001
 21
0.0
 31
0.0
  0
LINE
  5
82
330
49
100
AcDbEntity
  8
1
  6
Continuous
 62
     7
100
AcDbLine
 10
148.4999999999998
 20
210.0000000000001
 30
0.0
 11
148.4999999999998
 21
195.0000000000001
 31
0.0
  0
LINE
  5
83
330
49
100
AcDbEntity
  8
1
  6
Continuous
 62
     7
100
AcDbLine
 10
138.0000000000001
 20
20.0
 30
0.0
 11
138.0000000000001
 21
5.0
 31
0.0
  0
LINE
  5
84
330
49
100
AcDbEntity
  8
1
  6
Continuous
 62
     7
100
AcDbLine
 10
265.3526013774855
 20
20.0
 30
0.0
 11
265.3526013774855
 21
5.0
 31
0.0
  0
LINE
  5
85
330
49
100
AcDbEntity
  8
1
  6
Continuous
 62
     7
100
AcDbLine
 10
248.0000000000001
 20
20.0
 30
0.0
 11
248.0000000000001
 21
5.0
 31
0.0
  0
LINE
  5
86
330
49
100
AcDbEntity
  8
1
  6
Continuous
 62
     7
100
AcDbLine
 10
108.0000000000001
 20
14.99999999999989
 30
0.0
 11
138.0000000000001
 21
14.99999999999989
 31
0.0
  0
LINE
  5
87
330
49
100
AcDbEntity
  8
1
  6
Continuous
 62
     7
100
AcDbLine
 10
108.0000000000001
 20
9.99999999999986
 30
0.0
 11
138.0000000000001
 21
9.99999999999986
 31
0.0
  0
ARC
  5
88
102
{ACAD_REACTORS
330
A5
102
}
330
49
100
AcDbEntity
  8
1
  6
Continuous
 62
     7
100
AcDbCircle
 10
282.6763006887428
 20
10.84673060906323
 30
0.0
 40
0.3333333333333172
100
AcDbArc
 50
299.9816393688334
 51
119.9816393688407
  0
ARC
  5
89
102
{ACAD_REACTORS
330
A5
102
}
330
49
100
AcDbEntity
  8
1
  6
Continuous
 62
     7
100
AcDbCircle
 10
282.6763006887428
 20
12.5
 30
0.0
 40
0.3333333333333695
100
AcDbArc
 50
270.0
 51
90.0
  0
ARC
  5
8A
102
{ACAD_REACTORS
330
A5
102
}
330
49
100
AcDbEntity
  8
1
  6
Continuous
 62
     7
100
AcDbCircle
 10
282.6763006887428
 20
14.15326939093666
 30
0.0
 40
0.3333333333333755
100
AcDbArc
 50
240.0183606311498
 51
60.01836063115638
  0
ARC
  5
8B
102
{ACAD_REACTORS
330
A6
102
}
330
49
100
AcDbEntity
  8
1
  6
Continuous
 62
     7
100
AcDbCircle
 10
274.6763006887428
 20
10.84673060906323
 30
0.0
 40
0.3333333333333712
100
AcDbArc
 50
180.0
 51
0.0
  0
ARC
  5
8C
102
{ACAD_REACTORS
330
A6
102
}
330
49
100
AcDbEntity
  8
1
  6
Continuous
 62
     7
100
AcDbCircle
 10
274.6763006887428
 20
14.15326939093666
 30
0.0
 40
0.3333333333333144
100
AcDbArc
 50
0.0
 51
180.0
  0
ARC
  5
8D
102
{ACAD_REACTORS
330
A7
102
}
330
49
100
AcDbEntity
  8
1
  6
Continuous
 62
     7
100
AcDbCircle
 10
278.3429673554094
 20
8.7313459936787
 30
0.0
 40
0.3333333333333709
100
AcDbArc
 50
240.0183606311493
 51
60.01836063114089
  0
ARC
  5
8E
102
{ACAD_REACTORS
330
A7
102
}
330
49
100
AcDbEntity
  8
1
  6
Continuous
 62
     7
100
AcDbCircle
 10
276.0096340220761
 20
14.92250016016737
 30
0.0
 40
0.3333333333333144
100
AcDbArc
 50
0.0
 51
180.0
  0
ARC
  5
8F
102
{ACAD_REACTORS
330
A8
102
}
330
49
100
AcDbEntity
  8
1
  6
Continuous
 62
     7
100
AcDbCircle
 10
280.0780011429341
 20
15.73121731203457
 30
0.0
 40
0.2649662124753149
100
AcDbArc
 50
0.0
 51
149.9999999999746
  0
ARC
  5
90
102
{ACAD_REACTORS
330
A8
102
}
330
49
100
AcDbEntity
  8
1
  6
Continuous
 62
     7
100
AcDbCircle
 10
280.0096340220762
 20
9.3082690706018
 30
0.0
 40
0.3333333333334281
100
AcDbArc
 50
180.0
 51
0.0
  0
ARC
  5
91
102
{ACAD_REACTORS
330
A8
102
}
330
49
100
AcDbEntity
  8
1
  6
Continuous
 62
     7
100
AcDbCircle
 10
277.3429673554094
 20
10.84758507263291
 30
0.0
 40
0.3333333333333144
100
AcDbArc
 50
180.0
 51
0.0
  0
ARC
  5
92
102
{ACAD_REACTORS
330
A8
102
}
330
49
100
AcDbEntity
  8
1
  6
Continuous
 62
     7
100
AcDbCircle
 10
277.2746002345514
 20
15.73121731203457
 30
0.0
 40
0.2649662124753346
100
AcDbArc
 50
30.00000000001307
 51
180.0
  0
ARC
  5
93
102
{ACAD_REACTORS
330
A5
102
}
330
49
100
AcDbEntity
  8
1
  6
Continuous
 62
     7
100
AcDbCircle
 10
281.3429673554094
 20
10.07749983983263
 30
0.0
 40
0.3333333333332007
100
AcDbArc
 50
180.0
 51
299.9816393688589
  0
ARC
  5
94
102
{ACAD_REACTORS
330
A5
102
}
330
49
100
AcDbEntity
  8
1
  6
Continuous
 62
     7
100
AcDbCircle
 10
281.3429673554094
 20
14.92250016016737
 30
0.0
 40
0.3333333333334024
100
AcDbArc
 50
60.01836063114121
 51
180.0
  0
ARC
  5
95
330
49
100
AcDbEntity
  8
1
  6
Continuous
 62
     7
100
AcDbCircle
 10
287.0094488883027
 20
12.5
 30
0.0
 40
0.166666666666687
100
AcDbArc
 50
299.9816393688503
 51
60.01836063112923
  0
ARC
  5
96
330
49
100
AcDbEntity
  8
1
  6
Continuous
 62
     7
100
AcDbCircle
 10
270.3431524891829
 20
12.5
 30
0.0
 40
0.1666666666666407
100
AcDbArc
 50
119.9816393689046
 51
240.0183606311158
  0
ARC
  5
97
102
{ACAD_REACTORS
330
A7
102
}
330
49
100
AcDbEntity
  8
1
  6
Continuous
 62
     7
100
AcDbCircle
 10
276.3429673554094
 20
10.2700211480327
 30
0.0
 40
0.6666666666666288
100
AcDbArc
 50
180.0000000000104
 51
240.018360631158
  0
ARC
  5
98
102
{ACAD_REACTORS
330
A8
102
}
330
49
100
AcDbEntity
  8
1
  6
Continuous
 62
     7
100
AcDbCircle
 10
278.6763006887428
 20
12.83333333333326
 30
0.0
 40
0.166666666666709
100
AcDbArc
 50
209.9999999999622
 51
330.0000000000182
  0
MTEXT
  5
9A
330
49
100
AcDbEntity
  8
1
 62
     7
100
AcDbMText
 10
256.6763006887428
 20
10.06063942075605
 30
0.0
 40
4.5
 41
0.0
 71
     5
 72
     1
  1
1:2
  7
CONVERTER_11
 73
     1
 44
1.32052821128451
  0
MTEXT
  5
9B
330
49
100
AcDbEntity
  8
1
 62
     7
100
AcDbMText
 10
256.6763006887428
 20
16.26063942075598
 30
0.0
 40
3.0
 41
0.0
 71
     5
 72
     1
  1
Scale
  7
CONVERTER_11
 73
     1
 44
1.32052821128451
  0
MTEXT
  5
9D
330
49
100
AcDbEntity
  8
1
 62
     7
100
AcDbMText
 10
144.2763006887428
 20
12.5
 30
0.0
 40
4.5
 41
0.0
 71
     4
 72
     1
  1
JCHI 48 LP\PBulkhead mounting housing, 1 lever + plastic cover -JEI-
  7
CONVERTER_12
 73
     1
 44
0.90036014405762
  0
MTEXT
  5
9E
330
49
100
AcDbEntity
  8
1
 62
     7
100
AcDbMText
 10
151.4999999999998
 20
194.0000000000001
 30
0.0
 40
4.0
 41
0.0
 71
     5
 72
     1
  1
Diritti riservati      All rights reserved
  7
CONVERTER_11
 73
     1
 44
1.32052821128451
  0
MTEXT
  5
A0
330
49
100
AcDbEntity
  8
1
 62
     7
100
AcDbMText
 10
123.0000000000001
 20
17.49999999999994
 30
0.0
 40
2.5
 41
0.0
 71
     5
 72
     1
  1
dimensions in mm
  7
CONVERTER_13
 73
     1
 44
0.60024009603842
  0
MTEXT
  5
A1
330
49
100
AcDbEntity
  8
1
 62
     7
100
AcDbMText
 10
109.0000000000001
 20
12.49999999999987
 30
0.0
 40
3.0
 41
0.0
 71
     4
 72
     1
  1
Date
  7
CONVERTER_11
 73
     1
 44
1.32052821128451
  0
MTEXT
  5
A2
330
49
100
AcDbEntity
  8
1
 62
     7
100
AcDbMText
 10
119.6000000000001
 20
12.49999999999987
 30
0.0
 40
3.0
 41
0.0
 71
     4
 72
     1
  1
28/01/14
  7
CONVERTER_11
 73
     1
 44
1.32052821128451
  0
MTEXT
  5
A3
330
49
100
AcDbEntity
  8
1
 62
     7
100
AcDbMText
 10
109.0000000000001
 20
7.49999999999987
 30
0.0
 40
3.0
 41
0.0
 71
     4
 72
     1
  1
Sign.
  7
CONVERTER_11
 73
     1
 44
1.32052821128451
  0
MTEXT
  5
A4
330
49
100
AcDbEntity
  8
1
 62
     7
100
AcDbMText
 10
119.6000000000001
 20
7.49999999999987
 30
0.0
 40
3.0
 41
0.0
 71
     4
 72
     1
  1
Radice
  7
CONVERTER_11
 73
     1
 44
1.32052821128451
  0
HATCH
  5
A5
330
49
100
AcDbEntity
  8
1
  6
Continuous
 62
     7
100
AcDbHatch
 10
0.0
 20
0.0
 30
0.0
210
0.0
220
0.0
230
1.0
  2
SOLID
 70
     1
 71
     1
 91
        1
 92
        1
 93
       14
 72
     2
 10
281.3429673554094
 20
14.92250016016737
 40
0.3333333333334024
 50
60.01836063114121
 51
180.0
 73
     1
 72
     1
 10
281.0096340220762
 20
14.92250016016737
 11
281.0096340220762
 21
10.07749983983263
 72
     2
 10
281.3429673554094
 20
10.07749983983263
 40
0.3333333333332007
 50
180.0
 51
299.9816393688589
 73
     1
 72
     1
 10
281.5095415065727
 20
9.78877131114973
 11
282.8428748399059
 21
10.55800208038033
 72
     2
 10
282.6763006887428
 20
10.84673060906323
 40
0.3333333333333172
 50
299.9816393688334
 51
479.9816393688407
 73
     1
 72
     1
 10
282.5097265375796
 20
11.13545913774624
 11
281.6763006887428
 21
10.65463653264794
 72
     1
 10
281.6763006887428
 20
10.65463653264794
 11
281.6763006887428
 21
12.16666666666663
 72
     1
 10
281.6763006887428
 20
12.16666666666663
 11
282.6763006887428
 21
12.16666666666663
 72
     2
 10
282.6763006887428
 20
12.5
 40
0.3333333333333695
 50
270.0
 51
450.0
 73
     1
 72
     1
 10
282.6763006887428
 20
12.83333333333326
 11
281.6763006887428
 21
12.83333333333326
 72
     1
 10
281.6763006887428
 20
12.83333333333326
 11
281.6763006887428
 21
14.34536346735195
 72
     1
 10
281.6763006887428
 20
14.34536346735195
 11
282.5097265375796
 21
13.86454086225376
 72
     2
 10
282.6763006887428
 20
14.15326939093666
 40
0.3333333333333755
 50
240.0183606311498
 51
420.0183606311564
 73
     1
 72
     1
 10
282.8428748399059
 20
14.44199791961944
 11
281.5095415065727
 21
15.21122868885027
 97
       14
330
8A
330
62
330
61
330
60
330
89
330
5F
330
5E
330
5D
330
88
330
5C
330
93
330
7A
330
94
330
63
 75
     0
 76
     1
 98
        1
 10
0.0
 20
0.0
  0
HATCH
  5
A6
330
49
100
AcDbEntity
  8
1
  6
Continuous
 62
     7
100
AcDbHatch
 10
0.0
 20
0.0
 30
0.0
210
0.0
220
0.0
230
1.0
  2
SOLID
 70
     1
 71
     1
 91
        1
 92
        1
 93
        5
 72
     2
 10
274.6763006887428
 20
14.15326939093666
 40
0.3333333333333144
 50
0.0
 51
180.0
 73
     1
 72
     1
 10
274.3429673554094
 20
14.15326939093666
 11
274.3429673554094
 21
10.84673060906323
 72
     2
 10
274.6763006887428
 20
10.84673060906323
 40
0.3333333333333712
 50
180.0
 51
360.0
 73
     1
 72
     1
 10
275.0096340220761
 20
10.84673060906323
 11
275.0096340220761
 21
11.0392519172633
 72
     1
 10
275.0096340220761
 20
11.0392519172633
 11
275.0096340220761
 21
14.15326939093666
 97
        5
330
8C
330
64
330
8B
330
65
330
66
 75
     0
 76
     1
 98
        1
 10
0.0
 20
0.0
  0
HATCH
  5
A7
330
49
100
AcDbEntity
  8
1
  6
Continuous
 62
     7
100
AcDbHatch
 10
0.0
 20
0.0
 30
0.0
210
0.0
220
0.0
230
1.0
  2
SOLID
 70
     1
 71
     1
 91
        1
 92
        1
 93
        7
 72
     2
 10
276.0096340220761
 20
14.92250016016737
 40
0.3333333333333144
 50
0.0
 51
180.0
 73
     1
 72
     1
 10
275.6763006887428
 20
14.92250016016737
 11
275.6763006887428
 21
10.27002114803258
 72
     2
 10
276.3429673554094
 20
10.2700211480327
 40
0.6666666666666288
 50
180.0000000000104
 51
240.018360631158
 73
     1
 72
     1
 10
276.0098190530831
 20
9.692564090666906
 11
278.1763932042462
 21
8.442617464995806
 72
     2
 10
278.3429673554094
 20
8.731345993678701
 40
0.3333333333333709
 50
240.0183606311493
 51
420.0183606311409
 73
     1
 72
     1
 10
278.5095415065727
 20
9.020074522361597
 11
276.3429673554094
 21
10.2700211480327
 72
     1
 10
276.3429673554094
 20
10.2700211480327
 11
276.3429673554094
 21
14.92250016016737
 97
        7
330
8E
330
6A
330
97
330
67
330
8D
330
68
330
69
 75
     0
 76
     1
 98
        1
 10
0.0
 20
0.0
  0
HATCH
  5
A8
330
49
100
AcDbEntity
  8
1
  6
Continuous
 62
     7
100
AcDbHatch
 10
0.0
 20
0.0
 30
0.0
210
0.0
220
0.0
230
1.0
  2
SOLID
 70
     1
 71
     1
 91
        1
 92
        1
 93
       16
 72
     2
 10
280.0780011429341
 20
15.73121731203457
 40
0.2649662124753149
 50
210.0000000000254
 51
360.0
 73
     0
 72
     1
 10
280.3429673554094
 20
15.73121731203457
 11
280.3429673554094
 21
9.308269070601796
 72
     2
 10
280.0096340220762
 20
9.308269070601796
 40
0.3333333333334281
 50
0.0
 51
180.0
 73
     0
 72
     1
 10
279.6763006887428
 20
9.308269070601796
 11
279.6763006887428
 21
12.5
 72
     1
 10
279.6763006887428
 20
12.5
 11
279.6763006887428
 21
14.23205080756884
 72
     1
 10
279.6763006887428
 20
14.23205080756884
 11
278.8206382560402
 21
12.75
 72
     2
 10
278.6763006887428
 20
12.83333333333326
 40
0.166666666666709
 50
29.99999999998175
 51
150.0000000000378
 73
     0
 72
     1
 10
278.5319631214453
 20
12.75
 11
277.6763006887428
 21
14.23205080756884
 72
     1
 10
277.6763006887428
 20
14.23205080756884
 11
277.6763006887428
 21
12.5
 72
     1
 10
277.6763006887428
 20
12.5
 11
277.6763006887428
 21
10.84758507263291
 72
     2
 10
277.3429673554094
 20
10.84758507263291
 40
0.3333333333333144
 50
0.0
 51
180.0
 73
     0
 72
     1
 10
277.0096340220761
 20
10.84758507263291
 11
277.0096340220761
 21
12.5
 72
     1
 10
277.0096340220761
 20
12.5
 11
277.0096340220761
 21
15.73121731203457
 72
     2
 10
277.2746002345514
 20
15.73121731203457
 40
0.2649662124753346
 50
180.0
 51
329.9999999999869
 73
     0
 72
     1
 10
277.5040677056995
 20
15.86370041827229
 11
278.6763006887428
 21
13.83333333333326
 72
     1
 10
278.6763006887428
 20
13.83333333333326
 11
279.8485336717861
 21
15.86370041827229
 97
       16
330
70
330
92
330
71
330
6F
330
91
330
6E
330
76
330
77
330
98
330
78
330
79
330
6D
330
90
330
6C
330
8F
330
6B
 75
     0
 76
     1
 98
        1
 10
0.0
 20
0.0
  0
ENDBLK
  5
4B
330
49
100
AcDbEntity
  8
0
100
AcDbBlockEnd
  0
BLOCK
  5
2F5
330
2ED
100
AcDbEntity
  8
0
100
AcDbBlockBegin
  2
*D2
 70
     1
 10
0.0
 20
0.0
 30
0.0
  3
*D2
  1

  0
LINE
  5
2EE
330
2ED
100
AcDbEntity
  8
1
  6
Continuous
 62
     2
100
AcDbLine
 10
377.0541841468941
 20
307.5570229333195
 30
0.0
 11
545.0567786532926
 21
307.5570229333195
 31
0.0
  0
LINE
  5
2EF
330
2ED
100
AcDbEntity
  8
1
  6
Continuous
 62
     2
100
AcDbLine
 10
545.0567786532926
 20
178.0469724269805
 30
0.0
 11
545.0567786532926
 21
309.5570229333195
 31
0.0
  0
LINE
  5
2F0
330
2ED
100
AcDbEntity
  8
1
  6
Continuous
 62
     2
100
AcDbLine
 10
377.0541841468941
 20
282.6634688218542
 30
0.0
 11
377.0541841468941
 21
309.5570229333195
 31
0.0
  0
SOLID
  5
2F1
330
2ED
100
AcDbEntity
  8
1
 62
     2
100
AcDbTrace
 10
383.0541841468941
 20
308.3469379188439
 30
0.0
 11
383.0541841468941
 21
306.7671079477951
 31
0.0
 12
377.0541841468941
 22
307.5570229333195
 32
0.0
 13
377.0541841468941
 23
307.5570229333195
 33
0.0
  0
SOLID
  5
2F2
330
2ED
100
AcDbEntity
  8
1
 62
     2
100
AcDbTrace
 10
539.0567786532926
 20
306.7671079477951
 30
0.0
 11
539.0567786532926
 21
308.3469379188439
 31
0.0
 12
545.0567786532926
 22
307.5570229333195
 32
0.0
 13
545.0567786532926
 23
307.5570229333195
 33
0.0
  0
MTEXT
  5
2F4
330
2ED
100
AcDbEntity
  8
1
 62
     4
100
AcDbMText
 10
454.7554814000933
 20
311.5570229333195
 30
0.0
 40
6.0
 41
0.0
 71
     7
 72
     1
  1
170
  7
CONVERTER_14
 11
0.9999999999970619
 21
2.424068405545306E-6
 31
0.0
 73
     1
 44
0.60024009603842
  0
ENDBLK
  5
2F6
330
2ED
100
AcDbEntity
  8
0
100
AcDbBlockEnd
  0
BLOCK
  5
300
330
2F9
100
AcDbEntity
  8
0
100
AcDbBlockBegin
  2
*D3
 70
     1
 10
0.0
 20
0.0
 30
0.0
  3
*D3
  1

  0
LINE
  5
2FA
330
2F9
100
AcDbEntity
  8
1
  6
Continuous
 62
     2
100
AcDbLine
 10
64.49146532338014
 20
354.8347746807536
 30
0.0
 11
134.4914653233801
 21
354.8347746807536
 31
0.0
  0
LINE
  5
2FB
330
2F9
100
AcDbEntity
  8
1
  6
Continuous
 62
     2
100
AcDbLine
 10
134.4914653233801
 20
341.4097746807536
 30
0.0
 11
134.4914653233801
 21
356.8347746807536
 31
0.0
  0
LINE
  5
2FC
330
2F9
100
AcDbEntity
  8
1
  6
Continuous
 62
     2
100
AcDbLine
 10
64.49146532338014
 20
341.4097746807536
 30
0.0
 11
64.49146532338014
 21
356.8347746807536
 31
0.0
  0
SOLID
  5
2FD
330
2F9
100
AcDbEntity
  8
1
 62
     2
100
AcDbTrace
 10
70.49146532338014
 20
355.624689666278
 30
0.0
 11
70.49146532338014
 21
354.0448596952292
 31
0.0
 12
64.49146532338014
 22
354.8347746807536
 32
0.0
 13
64.49146532338014
 23
354.8347746807536
 33
0.0
  0
SOLID
  5
2FE
330
2F9
100
AcDbEntity
  8
1
 62
     2
100
AcDbTrace
 10
128.4914653233801
 20
354.0448596952292
 30
0.0
 11
128.4914653233801
 21
355.624689666278
 31
0.0
 12
134.4914653233801
 22
354.8347746807536
 32
0.0
 13
134.4914653233801
 23
354.8347746807536
 33
0.0
  0
MTEXT
  5
2FF
330
2F9
100
AcDbEntity
  8
1
 62
     4
100
AcDbMText
 10
94.99146532338014
 20
358.8347746807536
 30
0.0
 40
6.0
 41
0.0
 71
     7
 72
     1
  1
70
  7
CONVERTER_14
 11
0.9999999999970619
 21
2.424068405545306E-6
 31
0.0
 73
     1
 44
0.60024009603842
  0
ENDBLK
  5
301
330
2F9
100
AcDbEntity
  8
0
100
AcDbBlockEnd
  0
BLOCK
  5
30B
330
304
100
AcDbEntity
  8
0
100
AcDbBlockBegin
  2
*D4
 70
     1
 10
0.0
 20
0.0
 30
0.0
  3
*D4
  1

  0
LINE
  5
305
330
304
100
AcDbEntity
  8
1
  6
Continuous
 62
     2
100
AcDbLine
 10
164.4914653233801
 20
334.8347746807536
 30
0.0
 11
164.4914653233801
 21
186.8347746807536
 31
0.0
  0
LINE
  5
306
330
304
100
AcDbEntity
  8
1
  6
Continuous
 62
     2
100
AcDbLine
 10
141.0664653233801
 20
186.8347746807536
 30
0.0
 11
166.4914653233801
 21
186.8347746807536
 31
0.0
  0
LINE
  5
307
330
304
100
AcDbEntity
  8
1
  6
Continuous
 62
     2
100
AcDbLine
 10
141.0664653233801
 20
334.8347746807536
 30
0.0
 11
166.4914653233801
 21
334.8347746807536
 31
0.0
  0
SOLID
  5
308
330
304
100
AcDbEntity
  8
1
 62
     2
100
AcDbTrace
 10
165.2813803089045
 20
328.8347746807536
 30
0.0
 11
163.7015503378557
 21
328.8347746807536
 31
0.0
 12
164.4914653233801
 22
334.8347746807536
 32
0.0
 13
164.4914653233801
 23
334.8347746807536
 33
0.0
  0
SOLID
  5
309
330
304
100
AcDbEntity
  8
1
 62
     2
100
AcDbTrace
 10
163.7015503378557
 20
192.8347746807536
 30
0.0
 11
165.2813803089045
 21
192.8347746807536
 31
0.0
 12
164.4914653233801
 22
186.8347746807536
 32
0.0
 13
164.4914653233801
 23
186.8347746807536
 33
0.0
  0
MTEXT
  5
30A
330
304
100
AcDbEntity
  8
1
 62
     4
100
AcDbMText
 10
160.4914653233801
 20
254.5347746807536
 30
0.0
 40
6.0
 41
0.0
 71
     7
 72
     1
  1
148
  7
CONVERTER_14
 11
0.0
 21
1.0
 31
0.0
 73
     1
 44
0.60024009603842
  0
ENDBLK
  5
30C
330
304
100
AcDbEntity
  8
0
100
AcDbBlockEnd
  0
BLOCK
  5
316
330
30F
100
AcDbEntity
  8
0
100
AcDbBlockBegin
  2
*D5
 70
     1
 10
0.0
 20
0.0
 30
0.0
  3
*D5
  1

  0
LINE
  5
310
330
30F
100
AcDbEntity
  8
1
  6
Continuous
 62
     2
100
AcDbLine
 10
575.0567786532926
 20
149.3469724269806
 30
0.0
 11
575.0567786532926
 21
189.5469724269806
 31
0.0
  0
LINE
  5
311
330
30F
100
AcDbEntity
  8
1
  6
Continuous
 62
     2
100
AcDbLine
 10
472.6766831460934
 20
189.5469724269806
 30
0.0
 11
577.0567786532926
 21
189.5469724269806
 31
0.0
  0
LINE
  5
312
330
30F
100
AcDbEntity
  8
1
  6
Continuous
 62
     2
100
AcDbLine
 10
498.5541841468941
 20
149.3469724269806
 30
0.0
 11
577.0567786532926
 21
149.3469724269806
 31
0.0
  0
SOLID
  5
313
330
30F
100
AcDbEntity
  8
1
 62
     2
100
AcDbTrace
 10
574.2668636677682
 20
155.3469724269806
 30
0.0
 11
575.8466936388169
 21
155.3469724269806
 31
0.0
 12
575.0567786532926
 22
149.3469724269806
 32
0.0
 13
575.0567786532926
 23
149.3469724269806
 33
0.0
  0
SOLID
  5
314
330
30F
100
AcDbEntity
  8
1
 62
     2
100
AcDbTrace
 10
575.8466936388169
 20
183.5469724269806
 30
0.0
 11
574.2668636677682
 21
183.5469724269806
 31
0.0
 12
575.0567786532926
 22
189.5469724269806
 32
0.0
 13
575.0567786532926
 23
189.5469724269806
 33
0.0
  0
MTEXT
  5
315
330
30F
100
AcDbEntity
  8
1
 62
     4
100
AcDbMText
 10
570.4567786532926
 20
161.1969724269806
 30
0.0
 40
6.0
 41
0.0
 71
     7
 72
     1
  1
40,2
  7
CONVERTER_14
 11
0.0
 21
1.0
 31
0.0
 73
     1
 44
0.60024009603842
  0
ENDBLK
  5
317
330
30F
100
AcDbEntity
  8
0
100
AcDbBlockEnd
  0
BLOCK
  5
323
330
31A
100
AcDbEntity
  8
0
100
AcDbBlockBegin
  2
*D6
 70
     1
 10
0.0
 20
0.0
 30
0.0
  3
*D6
  1

  0
LINE
  5
31B
330
31A
100
AcDbEntity
  8
1
  6
Continuous
 62
     2
100
AcDbLine
 10
560.0567786532926
 20
160.8469724269806
 30
0.0
 11
560.0567786532926
 21
172.8469724269806
 31
0.0
  0
LINE
  5
31C
330
31A
100
AcDbEntity
  8
1
  6
Continuous
 62
     2
100
AcDbLine
 10
560.0567786532926
 20
149.3469724269806
 30
0.0
 11
560.0567786532926
 21
160.8469724269806
 31
0.0
  0
LINE
  5
31D
330
31A
100
AcDbEntity
  8
1
  6
Continuous
 62
     2
100
AcDbLine
 10
560.0567786532926
 20
127.8469724269806
 30
0.0
 11
560.0567786532926
 21
149.3469724269806
 31
0.0
  0
LINE
  5
31E
330
31A
100
AcDbEntity
  8
1
  6
Continuous
 62
     2
100
AcDbLine
 10
496.5541841468941
 20
160.8469724269806
 30
0.0
 11
562.0567786532926
 21
160.8469724269806
 31
0.0
  0
LINE
  5
31F
330
31A
100
AcDbEntity
  8
1
  6
Continuous
 62
     2
100
AcDbLine
 10
498.5541841468941
 20
149.3469724269806
 30
0.0
 11
562.0567786532926
 21
149.3469724269806
 31
0.0
  0
SOLID
  5
320
330
31A
100
AcDbEntity
  8
1
 62
     2
100
AcDbTrace
 10
560.8466936388169
 20
143.3469724269806
 30
0.0
 11
559.2668636677682
 21
143.3469724269806
 31
0.0
 12
560.0567786532926
 22
149.3469724269806
 32
0.0
 13
560.0567786532926
 23
149.3469724269806
 33
0.0
  0
SOLID
  5
321
330
31A
100
AcDbEntity
  8
1
 62
     2
100
AcDbTrace
 10
559.2668636677682
 20
166.8469724269806
 30
0.0
 11
560.8466936388169
 21
166.8469724269806
 31
0.0
 12
560.0567786532926
 22
160.8469724269806
 32
0.0
 13
560.0567786532926
 23
160.8469724269806
 33
0.0
  0
MTEXT
  5
322
330
31A
100
AcDbEntity
  8
1
 62
     4
100
AcDbMText
 10
555.4567786532926
 20
127.8469724269806
 30
0.0
 40
6.0
 41
0.0
 71
     7
 72
     1
  1
11,5
  7
CONVERTER_14
 11
0.0
 21
1.0
 31
0.0
 73
     1
 44
0.60024009603842
  0
ENDBLK
  5
324
330
31A
100
AcDbEntity
  8
0
100
AcDbBlockEnd
  0
BLOCK
  5
32E
330
327
100
AcDbEntity
  8
0
100
AcDbBlockBegin
  2
*D7
 70
     1
 10
0.0
 20
0.0
 30
0.0
  3
*D7
  1

  0
LINE
  5
328
330
327
100
AcDbEntity
  8
1
  6
Continuous
 62
     2
100
AcDbLine
 10
404.5541841468941
 20
109.3469724269806
 30
0.0
 11
497.5541841468941
 21
109.3469724269806
 31
0.0
  0
LINE
  5
329
330
327
100
AcDbEntity
  8
1
  6
Continuous
 62
     2
100
AcDbLine
 10
404.5541841468941
 20
148.3469724269806
 30
0.0
 11
404.5541841468941
 21
107.3469724269806
 31
0.0
  0
LINE
  5
32A
330
327
100
AcDbEntity
  8
1
  6
Continuous
 62
     2
100
AcDbLine
 10
497.5541841468941
 20
148.3469724269806
 30
0.0
 11
497.5541841468941
 21
107.3469724269806
 31
0.0
  0
SOLID
  5
32B
330
327
100
AcDbEntity
  8
1
 62
     2
100
AcDbTrace
 10
410.5541841468941
 20
110.136887412505
 30
0.0
 11
410.5541841468941
 21
108.5570574414562
 31
0.0
 12
404.5541841468941
 22
109.3469724269806
 32
0.0
 13
404.5541841468941
 23
109.3469724269806
 33
0.0
  0
SOLID
  5
32C
330
327
100
AcDbEntity
  8
1
 62
     2
100
AcDbTrace
 10
491.5541841468941
 20
108.5570574414562
 30
0.0
 11
491.5541841468941
 21
110.136887412505
 31
0.0
 12
497.5541841468941
 22
109.3469724269806
 32
0.0
 13
497.5541841468941
 23
109.3469724269806
 33
0.0
  0
MTEXT
  5
32D
330
327
100
AcDbEntity
  8
1
 62
     4
100
AcDbMText
 10
446.5541841468941
 20
113.3469724269806
 30
0.0
 40
6.0
 41
0.0
 71
     7
 72
     1
  1
93
  7
CONVERTER_14
 11
0.9999999999970619
 21
2.424068405545306E-6
 31
0.0
 73
     1
 44
0.60024009603842
  0
ENDBLK
  5
32F
330
327
100
AcDbEntity
  8
0
100
AcDbBlockEnd
  0
BLOCK
  5
339
330
332
100
AcDbEntity
  8
0
100
AcDbBlockBegin
  2
*D8
 70
     1
 10
0.0
 20
0.0
 30
0.0
  3
*D8
  1

  0
LINE
  5
333
330
332
100
AcDbEntity
  8
1
  6
Continuous
 62
     2
100
AcDbLine
 10
191.154184147854
 20
109.3469724269806
 30
0.0
 11
358.654184147854
 21
109.3469724269806
 31
0.0
  0
LINE
  5
334
330
332
100
AcDbEntity
  8
1
  6
Continuous
 62
     2
100
AcDbLine
 10
191.154184147854
 20
148.3469724269806
 30
0.0
 11
191.154184147854
 21
107.3469724269806
 31
0.0
  0
LINE
  5
335
330
332
100
AcDbEntity
  8
1
  6
Continuous
 62
     2
100
AcDbLine
 10
358.654184147854
 20
148.3469724269806
 30
0.0
 11
358.654184147854
 21
107.3469724269806
 31
0.0
  0
SOLID
  5
336
330
332
100
AcDbEntity
  8
1
 62
     2
100
AcDbTrace
 10
197.154184147854
 20
110.136887412505
 30
0.0
 11
197.154184147854
 21
108.5570574414562
 31
0.0
 12
191.154184147854
 22
109.3469724269806
 32
0.0
 13
191.154184147854
 23
109.3469724269806
 33
0.0
  0
SOLID
  5
337
330
332
100
AcDbEntity
  8
1
 62
     2
100
AcDbTrace
 10
352.654184147854
 20
108.5570574414562
 30
0.0
 11
352.654184147854
 21
110.136887412505
 31
0.0
 12
358.654184147854
 22
109.3469724269806
 32
0.0
 13
358.654184147854
 23
109.3469724269806
 33
0.0
  0
MTEXT
  5
338
330
332
100
AcDbEntity
  8
1
 62
     4
100
AcDbMText
 10
264.854184147854
 20
113.9469724269806
 30
0.0
 40
6.0
 41
0.0
 71
     7
 72
     1
  1
167,5
  7
CONVERTER_14
 11
0.9999999999970619
 21
2.424068405545306E-6
 31
0.0
 73
     1
 44
0.60024009603842
  0
ENDBLK
  5
33A
330
332
100
AcDbEntity
  8
0
100
AcDbBlockEnd
  0
BLOCK
  5
344
330
33D
100
AcDbEntity
  8
0
100
AcDbBlockBegin
  2
*D9
 70
     1
 10
0.0
 20
0.0
 30
0.0
  3
*D9
  1

  0
LINE
  5
33E
330
33D
100
AcDbEntity
  8
1
  6
Continuous
 62
     2
100
AcDbLine
 10
38.99146532338015
 20
323.3347746807536
 30
0.0
 11
38.99146532338015
 21
198.3347746807536
 31
0.0
  0
LINE
  5
33F
330
33D
100
AcDbEntity
  8
1
  6
Continuous
 62
     2
100
AcDbLine
 10
57.99146532338014
 20
198.3347746807536
 30
0.0
 11
36.99146532338015
 21
198.3347746807536
 31
0.0
  0
LINE
  5
340
330
33D
100
AcDbEntity
  8
1
  6
Continuous
 62
     2
100
AcDbLine
 10
57.99146532338015
 20
323.3347746807536
 30
0.0
 11
36.99146532338015
 21
323.3347746807536
 31
0.0
  0
SOLID
  5
341
330
33D
100
AcDbEntity
  8
1
 62
     2
100
AcDbTrace
 10
39.78138030890453
 20
317.3347746807536
 30
0.0
 11
38.20155033785578
 21
317.3347746807536
 31
0.0
 12
38.99146532338015
 22
323.3347746807536
 32
0.0
 13
38.99146532338015
 23
323.3347746807536
 33
0.0
  0
SOLID
  5
342
330
33D
100
AcDbEntity
  8
1
 62
     2
100
AcDbTrace
 10
38.20155033785578
 20
204.3347746807536
 30
0.0
 11
39.78138030890453
 21
204.3347746807536
 31
0.0
 12
38.99146532338015
 22
198.3347746807536
 32
0.0
 13
38.99146532338015
 23
198.3347746807536
 33
0.0
  0
MTEXT
  5
343
330
33D
100
AcDbEntity
  8
1
 62
     4
100
AcDbMText
 10
34.99146532338015
 20
254.5347746807536
 30
0.0
 40
6.0
 41
0.0
 71
     7
 72
     1
  1
125
  7
CONVERTER_14
 11
0.0
 21
1.0
 31
0.0
 73
     1
 44
0.60024009603842
  0
ENDBLK
  5
345
330
33D
100
AcDbEntity
  8
0
100
AcDbBlockEnd
  0
BLOCK
  5
34F
330
348
100
AcDbEntity
  8
0
100
AcDbBlockBegin
  2
*D10
 70
     1
 10
0.0
 20
0.0
 30
0.0
  3
*D10
  1

  0
LINE
  5
349
330
348
100
AcDbEntity
  8
1
  6
Continuous
 62
     2
100
AcDbLine
 10
58.99146532338014
 20
173.3347746807536
 30
0.0
 11
139.9914653233801
 21
173.3347746807536
 31
0.0
  0
LINE
  5
34A
330
348
100
AcDbEntity
  8
1
  6
Continuous
 62
     2
100
AcDbLine
 10
139.9914653233801
 20
197.3347746807536
 30
0.0
 11
139.9914653233801
 21
171.3347746807536
 31
0.0
  0
LINE
  5
34B
330
348
100
AcDbEntity
  8
1
  6
Continuous
 62
     2
100
AcDbLine
 10
58.99146532338014
 20
197.3347746807536
 30
0.0
 11
58.99146532338014
 21
171.3347746807536
 31
0.0
  0
SOLID
  5
34C
330
348
100
AcDbEntity
  8
1
 62
     2
100
AcDbTrace
 10
64.99146532338014
 20
174.124689666278
 30
0.0
 11
64.99146532338014
 21
172.5448596952292
 31
0.0
 12
58.99146532338014
 22
173.3347746807536
 32
0.0
 13
58.99146532338014
 23
173.3347746807536
 33
0.0
  0
SOLID
  5
34D
330
348
100
AcDbEntity
  8
1
 62
     2
100
AcDbTrace
 10
133.9914653233801
 20
172.5448596952292
 30
0.0
 11
133.9914653233801
 21
174.124689666278
 31
0.0
 12
139.9914653233801
 22
173.3347746807536
 32
0.0
 13
139.9914653233801
 23
173.3347746807536
 33
0.0
  0
MTEXT
  5
34E
330
348
100
AcDbEntity
  8
1
 62
     4
100
AcDbMText
 10
95.59146532338013
 20
177.3347746807536
 30
0.0
 40
6.0
 41
0.0
 71
     7
 72
     1
  1
81
  7
CONVERTER_14
 11
0.9999999999970619
 21
2.424068405545306E-6
 31
0.0
 73
     1
 44
0.60024009603842
  0
ENDBLK
  5
350
330
348
100
AcDbEntity
  8
0
100
AcDbBlockEnd
  0
BLOCK
  5
35A
330
353
100
AcDbEntity
  8
0
100
AcDbBlockBegin
  2
*D11
 70
     1
 10
0.0
 20
0.0
 30
0.0
  3
*D11
  1

  0
LINE
  5
354
330
353
100
AcDbEntity
  8
1
  6
Continuous
 62
     2
100
AcDbLine
 10
416.0541841468941
 20
129.3469724269806
 30
0.0
 11
486.0541841468941
 21
129.3469724269806
 31
0.0
  0
LINE
  5
355
330
353
100
AcDbEntity
  8
1
  6
Continuous
 62
     2
100
AcDbLine
 10
416.0541841468941
 20
145.3469724269806
 30
0.0
 11
416.0541841468941
 21
127.3469724269806
 31
0.0
  0
LINE
  5
356
330
353
100
AcDbEntity
  8
1
  6
Continuous
 62
     2
100
AcDbLine
 10
486.0541841468941
 20
145.3469724269806
 30
0.0
 11
486.0541841468941
 21
127.3469724269806
 31
0.0
  0
SOLID
  5
357
330
353
100
AcDbEntity
  8
1
 62
     2
100
AcDbTrace
 10
422.0541841468941
 20
130.136887412505
 30
0.0
 11
422.0541841468941
 21
128.5570574414562
 31
0.0
 12
416.0541841468941
 22
129.3469724269806
 32
0.0
 13
416.0541841468941
 23
129.3469724269806
 33
0.0
  0
SOLID
  5
358
330
353
100
AcDbEntity
  8
1
 62
     2
100
AcDbTrace
 10
480.0541841468941
 20
128.5570574414562
 30
0.0
 11
480.0541841468941
 21
130.136887412505
 31
0.0
 12
486.0541841468941
 22
129.3469724269806
 32
0.0
 13
486.0541841468941
 23
129.3469724269806
 33
0.0
  0
MTEXT
  5
359
330
353
100
AcDbEntity
  8
1
 62
     4
100
AcDbMText
 10
446.5541841468941
 20
133.3469724269806
 30
0.0
 40
6.0
 41
0.0
 71
     7
 72
     1
  1
70
  7
CONVERTER_14
 11
0.9999999999970619
 21
2.424068405545306E-6
 31
0.0
 73
     1
 44
0.60024009603842
  0
ENDBLK
  5
35B
330
353
100
AcDbEntity
  8
0
100
AcDbBlockEnd
  0
BLOCK
  5
365
330
35E
100
AcDbEntity
  8
0
100
AcDbBlockBegin
  2
*D12
 70
     1
 10
0.0
 20
0.0
 30
0.0
  3
*D12
  1

  0
LINE
  5
35F
330
35E
100
AcDbEntity
  8
1
  6
Continuous
 62
     2
100
AcDbLine
 10
200.904184147854
 20
129.3469724269806
 30
0.0
 11
348.904184147854
 21
129.3469724269806
 31
0.0
  0
LINE
  5
360
330
35E
100
AcDbEntity
  8
1
  6
Continuous
 62
     2
100
AcDbLine
 10
200.904184147854
 20
145.3469724269806
 30
0.0
 11
200.904184147854
 21
127.3469724269806
 31
0.0
  0
LINE
  5
361
330
35E
100
AcDbEntity
  8
1
  6
Continuous
 62
     2
100
AcDbLine
 10
348.904184147854
 20
145.3469724269806
 30
0.0
 11
348.904184147854
 21
127.3469724269806
 31
0.0
  0
SOLID
  5
362
330
35E
100
AcDbEntity
  8
1
 62
     2
100
AcDbTrace
 10
206.904184147854
 20
130.136887412505
 30
0.0
 11
206.904184147854
 21
128.5570574414562
 31
0.0
 12
200.904184147854
 22
129.3469724269806
 32
0.0
 13
200.904184147854
 23
129.3469724269806
 33
0.0
  0
SOLID
  5
363
330
35E
100
AcDbEntity
  8
1
 62
     2
100
AcDbTrace
 10
342.904184147854
 20
128.5570574414562
 30
0.0
 11
342.904184147854
 21
130.136887412505
 31
0.0
 12
348.904184147854
 22
129.3469724269806
 32
0.0
 13
348.904184147854
 23
129.3469724269806
 33
0.0
  0
MTEXT
  5
364
330
35E
100
AcDbEntity
  8
1
 62
     4
100
AcDbMText
 10
268.604184147854
 20
133.3469724269806
 30
0.0
 40
6.0
 41
0.0
 71
     7
 72
     1
  1
148
  7
CONVERTER_14
 11
0.9999999999970619
 21
2.424068405545306E-6
 31
0.0
 73
     1
 44
0.60024009603842
  0
ENDBLK
  5
366
330
35E
100
AcDbEntity
  8
0
100
AcDbBlockEnd
  0
BLOCK
  5
36F
330
369
100
AcDbEntity
  8
0
100
AcDbBlockBegin
  2
*D13
 70
     1
 10
0.0
 20
0.0
 30
0.0
  3
*D13
  1

  0
LINE
  5
36A
330
369
100
AcDbEntity
  8
1
  6
Continuous
 62
     2
100
AcDbLine
 10
150.200416099731
 20
346.514025372153
 30
0.0
 11
177.900416099731
 21
346.514025372153
 31
0.0
  0
LINE
  5
36B
330
369
100
AcDbEntity
  8
1
  6
Continuous
 62
     2
100
AcDbLine
 10
124.6607730868403
 20
327.5258766687113
 30
0.0
 11
150.200416099731
 21
346.514025372153
 31
0.0
  0
SOLID
  5
36C
330
369
100
AcDbEntity
  8
1
 62
     2
100
AcDbTrace
 10
141.4433424760831
 20
340.9876495972526
 30
0.0
 11
142.3859397115739
 21
339.7198273742778
 31
0.0
 12
137.0996081616458
 22
336.7738700717036
 32
0.0
 13
137.0996081616458
 23
336.7738700717036
 33
0.0
  0
SOLID
  5
36D
330
369
100
AcDbEntity
  8
1
 62
     2
100
AcDbTrace
 10
127.5395881706771
 20
328.6818997642547
 30
0.0
 11
126.5969909351863
 21
329.9497219872295
 31
0.0
 12
131.8833224851145
 22
332.8956792898036
 32
0.0
 13
131.8833224851145
 23
332.8956792898036
 33
0.0
  0
MTEXT
  5
36E
330
369
100
AcDbEntity
  8
1
 62
     4
100
AcDbMText
 10
161.8804160997454
 20
351.1140134457365
 30
0.0
 40
6.0
 41
0.0
 71
     7
 72
     1
  1
\C4;\U+00f8\C4;6,5
  7
CONVERTER_14
 11
0.9999999999970619
 21
2.424068405545306E-6
 31
0.0
 73
     1
 44
0.60024009603842
  0
ENDBLK
  5
370
330
369
100
AcDbEntity
  8
0
100
AcDbBlockEnd
  0
ENDSEC
  0
SECTION
  2
ENTITIES
  0
INSERT
  5
4C
330
1F
100
AcDbEntity
  8
1
100
AcDbBlockReference
  2
_formato_A4
 10
594.0000000000002
 20
0.0
 30
0.0
 41
2.0
 42
2.0
 43
2.0
  0
LINE
  5
A9
330
1F
100
AcDbEntity
  8
1
  6
DOT_CENTER
 62
     2
100
AcDbLine
 10
134.4914653233801
 20
340.4097746807536
 30
0.0
 11
134.4914653233801
 21
329.2597746807536
 31
0.0
  0
LINE
  5
AA
330
1F
100
AcDbEntity
  8
1
  6
DOT_CENTER
 62
     2
100
AcDbLine
 10
140.0664653233801
 20
334.8347746807536
 30
0.0
 11
128.9164653233802
 21
334.8347746807536
 31
0.0
  0
LINE
  5
AB
330
1F
100
AcDbEntity
  8
1
  6
DOT_CENTER
 62
     2
100
AcDbLine
 10
64.49146532338014
 20
340.4097746807536
 30
0.0
 11
64.49146532338014
 21
329.2597746807536
 31
0.0
  0
LINE
  5
AC
330
1F
100
AcDbEntity
  8
1
  6
DOT_CENTER
 62
     2
100
AcDbLine
 10
70.06646532338013
 20
334.8347746807536
 30
0.0
 11
58.91646532338013
 21
334.8347746807536
 31
0.0
  0
LINE
  5
AD
330
1F
100
AcDbEntity
  8
1
  6
DOT_CENTER
 62
     2
100
AcDbLine
 10
64.49146532338014
 20
192.4097746807536
 30
0.0
 11
64.49146532338014
 21
181.2597746807536
 31
0.0
  0
LINE
  5
AE
330
1F
100
AcDbEntity
  8
1
  6
DOT_CENTER
 62
     2
100
AcDbLine
 10
70.06646532338013
 20
186.8347746807536
 30
0.0
 11
58.91646532338013
 21
186.8347746807536
 31
0.0
  0
LINE
  5
AF
330
1F
100
AcDbEntity
  8
1
  6
DOT_CENTER
 62
     2
100
AcDbLine
 10
134.4914653233801
 20
192.4097746807536
 30
0.0
 11
134.4914653233801
 21
181.2597746807536
 31
0.0
  0
LINE
  5
B0
330
1F
100
AcDbEntity
  8
1
  6
DOT_CENTER
 62
     2
100
AcDbLine
 10
140.0664653233801
 20
186.8347746807536
 30
0.0
 11
128.9164653233802
 21
186.8347746807536
 31
0.0
  0
LINE
  5
B1
330
1F
100
AcDbEntity
  8
1
  6
DOT_CENTER
 62
     2
100
AcDbLine
 10
199.154184147854
 20
177.0469724269805
 30
0.0
 11
208.1541841478539
 21
177.0469724269805
 31
0.0
  0
LINE
  5
B2
330
1F
100
AcDbEntity
  8
1
  6
DOT_CENTER
 62
     2
100
AcDbLine
 10
350.654184147854
 20
177.0469724269806
 30
0.0
 11
341.6541841478541
 21
177.0469724269806
 31
0.0
  0
LINE
  5
B3
330
1F
100
AcDbEntity
  8
1
  6
DOT_CENTER
 62
     2
100
AcDbLine
 10
451.0541841468941
 20
184.5469724269806
 30
0.0
 11
451.0541841468941
 21
169.5469724269805
 31
0.0
  0
LINE
  5
B4
330
1F
100
AcDbEntity
  8
1
  6
DOT_CENTER
 62
     2
100
AcDbLine
 10
458.5541841468941
 20
177.0469724269806
 30
0.0
 11
443.5541841468941
 21
177.0469724269806
 31
0.0
  0
LINE
  5
B5
330
1F
100
AcDbEntity
  8
Sichtbare_Kanten_TC_020513_DIN_
  6
Continuous
 62
     7
100
AcDbLine
 10
277.5291841478539
 20
174.0511537275653
 30
0.0
 11
277.5291841478539
 21
179.2420195125992
 31
0.0
  0
LINE
  5
B6
330
1F
100
AcDbEntity
  8
Sichtbare_Kanten_TC_020513_DIN_
  6
Continuous
 62
     7
100
AcDbLine
 10
280.3415800679118
 20
175.0244110558742
 30
0.0
 11
278.0915800679118
 21
173.7263341327972
 31
0.0
  0
LINE
  5
B7
330
1F
100
AcDbEntity
  8
Sichtbare_Kanten_TC_020513_DIN_
  6
Continuous
 62
     7
100
AcDbLine
 10
278.2791841478539
 20
174.7004325069832
 30
0.0
 11
279.9667882277948
 21
175.6740502454103
 31
0.0
  0
LINE
  5
B8
330
1F
100
AcDbEntity
  8
Sichtbare_Kanten_TC_020513_DIN_
  6
Continuous
 62
     7
100
AcDbLine
 10
278.2791841478539
 20
176.2715866200822
 30
0.0
 11
278.2791841478539
 21
174.7004325069832
 31
0.0
  0
LINE
  5
B9
330
1F
100
AcDbEntity
  8
Sichtbare_Kanten_TC_020513_DIN_
  6
Continuous
 62
     7
100
AcDbLine
 10
280.1541841478539
 20
176.2715866200822
 30
0.0
 11
278.2791841478539
 21
176.2715866200822
 31
0.0
  0
LINE
  5
BA
330
1F
100
AcDbEntity
  8
Sichtbare_Kanten_TC_020513_DIN_
  6
Continuous
 62
     7
100
AcDbLine
 10
278.2791841478539
 20
177.0215866200822
 30
0.0
 11
280.1541841478539
 21
177.0215866200822
 31
0.0
  0
LINE
  5
BB
330
1F
100
AcDbEntity
  8
Sichtbare_Kanten_TC_020513_DIN_
  6
Continuous
 62
     7
100
AcDbLine
 10
278.2791841478539
 20
178.5927407331822
 30
0.0
 11
278.2791841478539
 21
177.0215866200822
 31
0.0
  0
LINE
  5
BC
330
1F
100
AcDbEntity
  8
Sichtbare_Kanten_TC_020513_DIN_
  6
Continuous
 62
     7
100
AcDbLine
 10
279.9667882277948
 20
177.6191229947542
 30
0.0
 11
278.2791841478539
 21
178.5927407331822
 31
0.0
  0
LINE
  5
BD
330
1F
100
AcDbEntity
  8
Sichtbare_Kanten_TC_020513_DIN_
  6
Continuous
 62
     7
100
AcDbLine
 10
278.0915800679118
 20
179.5668391073673
 30
0.0
 11
280.3415800679118
 21
178.2687621842902
 31
0.0
  0
LINE
  5
BE
330
1F
100
AcDbEntity
  8
Sichtbare_Kanten_TC_020513_DIN_
  6
Continuous
 62
     7
100
AcDbLine
 10
269.9541841478537
 20
174.9598075737192
 30
0.0
 11
269.9541841478537
 21
178.3333656664452
 31
0.0
  0
LINE
  5
BF
330
1F
100
AcDbEntity
  8
Sichtbare_Kanten_TC_020513_DIN_
  6
Continuous
 62
     7
100
AcDbLine
 10
270.7041841478537
 20
178.3333656664452
 30
0.0
 11
270.7041841478537
 21
174.9598075737192
 31
0.0
  0
LINE
  5
C0
330
1F
100
AcDbEntity
  8
Sichtbare_Kanten_TC_020513_DIN_
  6
Continuous
 62
     7
100
AcDbLine
 10
265.9046006988438
 20
176.6465866200822
 30
0.0
 11
274.9041841478539
 21
171.4545192456532
 31
0.0
  0
LINE
  5
C1
330
1F
100
AcDbEntity
  8
Sichtbare_Kanten_TC_020513_DIN_
  6
Continuous
 62
     7
100
AcDbLine
 10
274.9041841478539
 20
171.4545192456532
 30
0.0
 11
283.9037675968627
 21
176.6465866200822
 31
0.0
  0
LINE
  5
C2
330
1F
100
AcDbEntity
  8
Sichtbare_Kanten_TC_020513_DIN_
  6
Continuous
 62
     7
100
AcDbLine
 10
283.9037675968627
 20
176.6465866200822
 30
0.0
 11
274.9041841478539
 21
181.8386539945112
 31
0.0
  0
LINE
  5
C3
330
1F
100
AcDbEntity
  8
Sichtbare_Kanten_TC_020513_DIN_
  6
Continuous
 62
     7
100
AcDbLine
 10
274.9041841478539
 20
181.8386539945112
 30
0.0
 11
265.9046006988438
 21
176.6465866200822
 31
0.0
  0
LINE
  5
C4
330
1F
100
AcDbEntity
  8
Sichtbare_Kanten_TC_020513_DIN_
  6
Continuous
 62
     7
100
AcDbLine
 10
274.9041841478539
 20
171.0215866200822
 30
0.0
 11
265.1541841478539
 21
176.6465866200822
 31
0.0
  0
LINE
  5
C5
330
1F
100
AcDbEntity
  8
Sichtbare_Kanten_TC_020513_DIN_
  6
Continuous
 62
     7
100
AcDbLine
 10
284.6541841478539
 20
176.6465866200822
 30
0.0
 11
274.9041841478539
 21
171.0215866200822
 31
0.0
  0
LINE
  5
C6
330
1F
100
AcDbEntity
  8
Sichtbare_Kanten_TC_020513_DIN_
  6
Continuous
 62
     7
100
AcDbLine
 10
274.9041841478539
 20
182.2715866200822
 30
0.0
 11
284.6541841478539
 21
176.6465866200822
 31
0.0
  0
LINE
  5
C7
330
1F
100
AcDbEntity
  8
Sichtbare_Kanten_TC_020513_DIN_
  6
Continuous
 62
     7
100
AcDbLine
 10
265.1541841478539
 20
176.6465866200822
 30
0.0
 11
274.9041841478539
 21
182.2715866200822
 31
0.0
  0
LINE
  5
C8
330
1F
100
AcDbEntity
  8
Sichtbare_Kanten_TC_020513_DIN_
  6
Continuous
 62
     7
100
AcDbLine
 10
271.4541841478537
 20
174.0944229583343
 30
0.0
 11
271.4541841478537
 21
179.1987502818302
 31
0.0
  0
LINE
  5
C9
330
1F
100
AcDbEntity
  8
Sichtbare_Kanten_TC_020513_DIN_
  6
Continuous
 62
     7
100
AcDbLine
 10
274.7167882277948
 20
171.9955649020282
 30
0.0
 11
271.6417882277948
 21
173.7696033635662
 31
0.0
  0
LINE
  5
CA
330
1F
100
AcDbEntity
  8
Sichtbare_Kanten_TC_020513_DIN_
  6
Continuous
 62
     7
100
AcDbLine
 10
272.2041841478537
 20
174.3110094300602
 30
0.0
 11
275.0915800679118
 21
172.6452040915642
 31
0.0
  0
LINE
  5
CB
330
1F
100
AcDbEntity
  8
Sichtbare_Kanten_TC_020513_DIN_
  6
Continuous
 62
     7
100
AcDbLine
 10
272.2041841478537
 20
179.1987502818302
 30
0.0
 11
272.2041841478537
 21
174.3110094300602
 31
0.0
  0
LINE
  5
CC
330
1F
100
AcDbEntity
  8
Sichtbare_Kanten_TC_020513_DIN_
  6
Continuous
 62
     7
100
AcDbLine
 10
276.0291841478539
 20
178.9501664337683
 30
0.0
 11
274.9041841478539
 21
177.3965866200822
 31
0.0
  0
LINE
  5
CD
330
1F
100
AcDbEntity
  8
Sichtbare_Kanten_TC_020513_DIN_
  6
Continuous
 62
     7
100
AcDbLine
 10
276.0291841478539
 20
173.1857691121812
 30
0.0
 11
276.0291841478539
 21
178.9501664337683
 31
0.0
  0
LINE
  5
CE
330
1F
100
AcDbEntity
  8
Sichtbare_Kanten_TC_020513_DIN_
  6
Continuous
 62
     7
100
AcDbLine
 10
276.7791841478539
 20
180.1074041279842
 30
0.0
 11
276.7791841478539
 21
173.1857691121812
 31
0.0
  0
LINE
  5
CF
330
1F
100
AcDbEntity
  8
Sichtbare_Kanten_TC_020513_DIN_
  6
Continuous
 62
     7
100
AcDbLine
 10
274.9041841478539
 20
178.6753421327232
 30
0.0
 11
276.1004552883629
 21
180.3273445288032
 31
0.0
  0
LINE
  5
D0
330
1F
100
AcDbEntity
  8
Sichtbare_Kanten_TC_020513_DIN_
  6
Continuous
 62
     7
100
AcDbLine
 10
273.7079130073438
 20
180.3273445288032
 30
0.0
 11
274.9041841478539
 21
178.6753421327232
 31
0.0
  0
LINE
  5
D1
330
1F
100
AcDbEntity
  8
Sichtbare_Kanten_TC_020513_DIN_
  6
Continuous
 62
     7
100
AcDbLine
 10
273.0291841478539
 20
174.9598075737192
 30
0.0
 11
273.0291841478539
 21
180.1074041279842
 31
0.0
  0
LINE
  5
D2
330
1F
100
AcDbEntity
  8
Sichtbare_Kanten_TC_020513_DIN_
  6
Continuous
 62
     7
100
AcDbLine
 10
273.7791841478539
 20
178.9501664337683
 30
0.0
 11
273.7791841478539
 21
174.9598075737192
 31
0.0
  0
LINE
  5
D3
330
1F
100
AcDbEntity
  8
Sichtbare_Kanten_TC_020513_DIN_
  6
Continuous
 62
     7
100
AcDbLine
 10
274.9041841478539
 20
177.3965866200822
 30
0.0
 11
273.7791841478539
 21
178.9501664337683
 31
0.0
  0
LINE
  5
D4
330
1F
100
AcDbEntity
  8
1
  6
DOT_CENTER
 62
     2
100
AcDbLine
 10
99.49146532338014
 20
325.3347746807536
 30
0.0
 11
99.49146532338014
 21
196.3347746807536
 31
0.0
  0
LINE
  5
D5
330
1F
100
AcDbEntity
  8
1
  6
DOT_CENTER
 62
     2
100
AcDbLine
 10
56.99146532338013
 20
260.8347746807536
 30
0.0
 11
141.9914653233801
 21
260.8347746807536
 31
0.0
  0
LINE
  5
D6
330
1F
100
AcDbEntity
  8
1
  6
Continuous
 62
     7
100
AcDbLine
 10
139.9914653233801
 20
323.3347746807536
 30
0.0
 11
58.99146532338015
 21
323.3347746807536
 31
0.0
  0
LINE
  5
D7
330
1F
100
AcDbEntity
  8
1
  6
Continuous
 62
     7
100
AcDbLine
 10
139.9914653233801
 20
198.3347746807536
 30
0.0
 11
139.9914653233801
 21
323.3347746807536
 31
0.0
  0
LINE
  5
D8
330
1F
100
AcDbEntity
  8
1
  6
Continuous
 62
     7
100
AcDbLine
 10
58.99146532338013
 20
198.3347746807536
 30
0.0
 11
139.9914653233801
 21
198.3347746807536
 31
0.0
  0
LINE
  5
D9
330
1F
100
AcDbEntity
  8
1
  6
Continuous
 62
     7
100
AcDbLine
 10
58.99146532338015
 20
323.3347746807536
 30
0.0
 11
58.99146532338013
 21
198.3347746807536
 31
0.0
  0
LINE
  5
DA
330
1F
100
AcDbEntity
  8
0
  6
Continuous
 62
     7
100
AcDbLine
 10
495.9136198547492
 20
189.5469724269806
 30
0.0
 11
464.5541841468941
 21
212.9459519125469
 31
0.0
  0
LINE
  5
DB
330
1F
100
AcDbEntity
  8
0
  6
Continuous
 62
     2
100
AcDbLine
 10
480.5541841468941
 20
161.8469724269806
 30
0.0
 11
480.5541841468941
 21
167.0469724269806
 31
0.0
  0
LINE
  5
DC
330
1F
100
AcDbEntity
  8
0
  6
Continuous
 62
     2
100
AcDbLine
 10
480.5541841468941
 20
161.8469724269806
 30
0.0
 11
480.5541841468941
 21
160.8469724269806
 31
0.0
  0
LINE
  5
DD
330
1F
100
AcDbEntity
  8
0
  6
Continuous
 62
     2
100
AcDbLine
 10
479.0541841468941
 20
157.3469724269806
 30
0.0
 11
479.0541841468941
 21
159.8469724269806
 31
0.0
  0
LINE
  5
DE
330
1F
100
AcDbEntity
  8
0
  6
Continuous
 62
     7
100
AcDbLine
 10
480.5541841468941
 20
160.8469724269806
 30
0.0
 11
479.0541841468941
 21
160.8469724269806
 31
0.0
  0
LINE
  5
DF
330
1F
100
AcDbEntity
  8
0
  6
Continuous
 62
     2
100
AcDbLine
 10
479.0541841468941
 20
159.8469724269806
 30
0.0
 11
479.0541841468941
 21
160.8469724269806
 31
0.0
  0
LINE
  5
E0
330
1F
100
AcDbEntity
  8
0
  6
Continuous
 62
     7
100
AcDbLine
 10
479.0541841468941
 20
160.8469724269806
 30
0.0
 11
477.0541841468941
 21
160.8469724269806
 31
0.0
  0
LINE
  5
E1
330
1F
100
AcDbEntity
  8
0
  6
Continuous
 62
     2
100
AcDbLine
 10
485.5541841468941
 20
152.8469724269806
 30
0.0
 11
485.5541841468941
 21
159.8469724269806
 31
0.0
  0
LINE
  5
E2
330
1F
100
AcDbEntity
  8
0
  6
Continuous
 62
     7
100
AcDbLine
 10
485.5541841468941
 20
160.8469724269806
 30
0.0
 11
480.5541841468941
 21
160.8469724269806
 31
0.0
  0
LINE
  5
E3
330
1F
100
AcDbEntity
  8
0
  6
Continuous
 62
     2
100
AcDbLine
 10
485.5541841468941
 20
149.3469724269806
 30
0.0
 11
485.5541841468941
 21
152.8469724269806
 31
0.0
  0
LINE
  5
E4
330
1F
100
AcDbEntity
  8
0
  6
Continuous
 62
     7
100
AcDbLine
 10
401.1541841468941
 20
196.1757173748313
 30
0.0
 11
401.1541841468941
 21
211.1757173748313
 31
0.0
  0
LINE
  5
E5
330
1F
100
AcDbEntity
  8
0
  6
Continuous
 62
     7
100
AcDbLine
 10
382.0132224398475
 20
199.9566112295201
 30
0.0
 11
391.6283288674277
 21
186.1312456834458
 31
0.0
  0
LINE
  5
E6
330
1F
100
AcDbEntity
  8
0
  6
Continuous
 62
     7
100
AcDbLine
 10
392.0541841468941
 20
179.3469724269806
 30
0.0
 11
405.5541841468941
 21
165.8469724269806
 31
0.0
  0
LINE
  5
E7
330
1F
100
AcDbEntity
  8
0
  6
Continuous
 62
     7
100
AcDbLine
 10
405.5541841468941
 20
165.8469724269806
 30
0.0
 11
405.5541841468941
 21
183.8469724269806
 31
0.0
  0
LINE
  5
E8
330
1F
100
AcDbEntity
  8
0
  6
Continuous
 62
     7
100
AcDbLine
 10
405.4541841468941
 20
189.5469724269806
 30
0.0
 11
405.4541841468941
 21
184.0469724269806
 31
0.0
  0
LINE
  5
E9
330
1F
100
AcDbEntity
  8
0
  6
Continuous
 62
     7
100
AcDbLine
 10
405.5541841468941
 20
183.8469724269806
 30
0.0
 11
405.5541841468941
 21
184.0469724269806
 31
0.0
  0
LINE
  5
EA
330
1F
100
AcDbEntity
  8
0
  6
Continuous
 62
     7
100
AcDbLine
 10
405.5541841468941
 20
161.8469724269806
 30
0.0
 11
405.5541841468941
 21
159.8469724269806
 31
0.0
  0
LINE
  5
EB
330
1F
100
AcDbEntity
  8
0
  6
Continuous
 62
     7
100
AcDbLine
 10
402.0541841468941
 20
183.8469724269806
 30
0.0
 11
402.0541841468941
 21
191.8469724269806
 31
0.0
  0
LINE
  5
EC
330
1F
100
AcDbEntity
  8
0
  6
Continuous
 62
     7
100
AcDbLine
 10
405.5541841468941
 20
183.8469724269806
 30
0.0
 11
402.0541841468941
 21
183.8469724269806
 31
0.0
  0
LINE
  5
ED
330
1F
100
AcDbEntity
  8
0
  6
Continuous
 62
     7
100
AcDbLine
 10
405.5541841468941
 20
184.0469724269806
 30
0.0
 11
421.5541841468941
 21
184.0469724269806
 31
0.0
  0
LINE
  5
EE
330
1F
100
AcDbEntity
  8
0
  6
Continuous
 62
     7
100
AcDbLine
 10
405.4541841468941
 20
184.0469724269806
 30
0.0
 11
405.5541841468941
 21
184.0469724269806
 31
0.0
  0
LINE
  5
EF
330
1F
100
AcDbEntity
  8
0
  6
Continuous
 62
     2
100
AcDbLine
 10
421.5541841468941
 20
189.5469724269806
 30
0.0
 11
421.5541841468941
 21
184.0469724269806
 31
0.0
  0
LINE
  5
F0
330
1F
100
AcDbEntity
  8
0
  6
Continuous
 62
     7
100
AcDbLine
 10
405.4541841468941
 20
189.5469724269806
 30
0.0
 11
421.5541841468941
 21
189.5469724269806
 31
0.0
  0
LINE
  5
F1
330
1F
100
AcDbEntity
  8
0
  6
Continuous
 62
     2
100
AcDbLine
 10
421.5541841468941
 20
161.8469724269806
 30
0.0
 11
421.5541841468941
 21
160.8469724269806
 31
0.0
  0
LINE
  5
F2
330
1F
100
AcDbEntity
  8
0
  6
Continuous
 62
     7
100
AcDbLine
 10
421.5541841468941
 20
160.8469724269806
 30
0.0
 11
416.5541841468941
 21
160.8469724269806
 31
0.0
  0
LINE
  5
F3
330
1F
100
AcDbEntity
  8
0
  6
Continuous
 62
     2
100
AcDbLine
 10
416.5541841468941
 20
160.8469724269806
 30
0.0
 11
416.5541841468941
 21
159.8469724269806
 31
0.0
  0
LINE
  5
F4
330
1F
100
AcDbEntity
  8
0
  6
Continuous
 62
     2
100
AcDbLine
 10
405.5541841468941
 20
159.8469724269806
 30
0.0
 11
416.5541841468941
 21
159.8469724269806
 31
0.0
  0
LINE
  5
F5
330
1F
100
AcDbEntity
  8
0
  6
Continuous
 62
     7
100
AcDbLine
 10
416.5541841468941
 20
160.8469724269806
 30
0.0
 11
406.5541841468941
 21
160.8469724269806
 31
0.0
  0
LINE
  5
F6
330
1F
100
AcDbEntity
  8
0
  6
Continuous
 62
     2
100
AcDbLine
 10
421.5541841468941
 20
161.8469724269806
 30
0.0
 11
405.5541841468941
 21
161.8469724269806
 31
0.0
  0
LINE
  5
F7
330
1F
100
AcDbEntity
  8
0
  6
Continuous
 62
     7
100
AcDbLine
 10
401.1541841468941
 20
196.1757173748313
 30
0.0
 11
399.5565764375745
 21
196.1757173748313
 31
0.0
  0
LINE
  5
F8
330
1F
100
AcDbEntity
  8
0
  6
Continuous
 62
     7
100
AcDbLine
 10
394.5517918562139
 20
196.1757173748313
 30
0.0
 11
394.3541841468942
 21
196.1757173748313
 31
0.0
  0
LINE
  5
F9
330
1F
100
AcDbEntity
  8
0
  6
Continuous
 62
     7
100
AcDbLine
 10
399.5565764375745
 20
196.1757173748313
 30
0.0
 11
394.5517918562139
 21
196.1757173748313
 31
0.0
  0
LINE
  5
FA
330
1F
100
AcDbEntity
  8
0
  6
Continuous
 62
     7
100
AcDbLine
 10
392.0541841468941
 20
191.8469724269806
 30
0.0
 11
392.0541841468941
 21
179.3469724269806
 31
0.0
  0
LINE
  5
FB
330
1F
100
AcDbEntity
  8
0
  6
Continuous
 62
     2
100
AcDbLine
 10
401.1541841468941
 20
211.1757173748313
 30
0.0
 11
394.3541841468942
 21
211.1757173748313
 31
0.0
  0
LINE
  5
FC
330
1F
100
AcDbEntity
  8
0
  6
Continuous
 62
     7
100
AcDbLine
 10
394.3541841468942
 20
199.9566112295201
 30
0.0
 11
394.3541841468942
 21
211.1757173748313
 31
0.0
  0
LINE
  5
FD
330
1F
100
AcDbEntity
  8
0
  6
Continuous
 62
     7
100
AcDbLine
 10
394.3541841468942
 20
238.0570229333195
 30
0.0
 11
388.6791841468941
 21
238.0626514533459
 31
0.0
  0
LINE
  5
FE
330
1F
100
AcDbEntity
  8
0
  6
Continuous
 62
     7
100
AcDbLine
 10
388.6791841468941
 20
247.051394413293
 30
0.0
 11
394.3541841468942
 21
247.0570229333195
 31
0.0
  0
LINE
  5
FF
330
1F
100
AcDbEntity
  8
0
  6
Continuous
 62
     7
100
AcDbLine
 10
391.0541841468941
 20
240.5595244977756
 30
0.0
 11
391.0541841468941
 21
244.5545213688633
 31
0.0
  0
LINE
  5
100
330
1F
100
AcDbEntity
  8
0
  6
Continuous
 62
     7
100
AcDbLine
 10
394.3541841468942
 20
211.4566112295201
 30
0.0
 11
394.3541841468942
 21
238.0570229333195
 31
0.0
  0
LINE
  5
101
330
1F
100
AcDbEntity
  8
0
  6
Continuous
 62
     2
100
AcDbLine
 10
394.3541841468942
 20
273.6634688218542
 30
0.0
 11
380.5541841468941
 21
273.6634688218542
 31
0.0
  0
LINE
  5
102
330
1F
100
AcDbEntity
  8
0
  6
Continuous
 62
     7
100
AcDbLine
 10
392.4750110821779
 20
285.1634688218542
 30
0.0
 11
380.5541841468941
 21
285.1634688218542
 31
0.0
  0
LINE
  5
103
330
1F
100
AcDbEntity
  8
0
  6
Continuous
 62
     2
100
AcDbLine
 10
380.5541841468941
 20
211.4566112295201
 30
0.0
 11
380.5541841468941
 21
273.6634688218542
 31
0.0
  0
LINE
  5
104
330
1F
100
AcDbEntity
  8
0
  6
Continuous
 62
     2
100
AcDbLine
 10
380.5541841468941
 20
273.6634688218542
 30
0.0
 11
380.5541841468941
 21
285.1634688218542
 31
0.0
  0
LINE
  5
105
330
1F
100
AcDbEntity
  8
0
  6
Continuous
 62
     7
100
AcDbLine
 10
377.0541841468941
 20
273.6634688218542
 30
0.0
 11
377.0541841468941
 21
281.6634688218542
 31
0.0
  0
LINE
  5
106
330
1F
100
AcDbEntity
  8
0
  6
Continuous
 62
     2
100
AcDbLine
 10
380.5541841468941
 20
273.6634688218542
 30
0.0
 11
377.0541841468941
 21
273.6634688218542
 31
0.0
  0
LINE
  5
107
330
1F
100
AcDbEntity
  8
0
  6
Continuous
 62
     7
100
AcDbLine
 10
377.0541841468941
 20
273.6634688218542
 30
0.0
 11
377.0541841468941
 21
221.2050996186006
 31
0.0
  0
LINE
  5
108
330
1F
100
AcDbEntity
  8
0
  6
Continuous
 62
     7
100
AcDbLine
 10
377.0541841468941
 20
221.2050996186006
 30
0.0
 11
377.0541841468941
 21
221.1612448155795
 31
0.0
  0
LINE
  5
109
330
1F
100
AcDbEntity
  8
0
  6
Continuous
 62
     7
100
AcDbLine
 10
543.7572310012082
 20
161.4702950578749
 30
0.0
 11
538.5610785785015
 21
164.4702950578749
 31
0.0
  0
LINE
  5
10A
330
1F
100
AcDbEntity
  8
0
  6
Continuous
 62
     7
100
AcDbLine
 10
543.0572310012082
 20
160.2578594925766
 30
0.0
 11
537.8610785785014
 21
163.2578594925766
 31
0.0
  0
LINE
  5
10B
330
1F
100
AcDbEntity
  8
0
  6
Continuous
 62
     7
100
AcDbLine
 10
538.5610785785015
 20
164.4702950578749
 30
0.0
 11
532.4654089953516
 21
167.9896315325974
 31
0.0
  0
LINE
  5
10C
330
1F
100
AcDbEntity
  8
0
  6
Continuous
 62
     7
100
AcDbLine
 10
537.8610785785014
 20
163.2578594925766
 30
0.0
 11
531.7654089953518
 21
166.7771959672992
 31
0.0
  0
LINE
  5
10D
330
1F
100
AcDbEntity
  8
0
  6
Continuous
 62
     7
100
AcDbLine
 10
504.9738069927221
 20
155.9278594925767
 30
0.0
 11
520.562264260842
 21
164.9278594925767
 31
0.0
  0
LINE
  5
10E
330
1F
100
AcDbEntity
  8
0
  6
Continuous
 62
     7
100
AcDbLine
 10
523.7654089953518
 20
166.7771959672993
 30
0.0
 11
520.562264260842
 21
164.9278594925767
 31
0.0
  0
LINE
  5
10F
330
1F
100
AcDbEntity
  8
0
  6
Continuous
 62
     7
100
AcDbLine
 10
523.0654089953517
 20
167.9896315325975
 30
0.0
 11
519.8622642608419
 21
166.1402950578749
 31
0.0
  0
LINE
  5
110
330
1F
100
AcDbEntity
  8
0
  6
Continuous
 62
     2
100
AcDbLine
 10
496.5541841468942
 20
161.8469724269806
 30
0.0
 11
480.5541841468941
 21
161.8469724269806
 31
0.0
  0
LINE
  5
111
330
1F
100
AcDbEntity
  8
0
  6
Continuous
 62
     2
100
AcDbLine
 10
416.5541841468941
 20
159.8469724269806
 30
0.0
 11
423.0541841468941
 21
159.8469724269806
 31
0.0
  0
LINE
  5
112
330
1F
100
AcDbEntity
  8
0
  6
Continuous
 62
     2
100
AcDbLine
 10
476.0541841468941
 20
159.8469724269806
 30
0.0
 11
479.0541841468941
 21
159.8469724269806
 31
0.0
  0
LINE
  5
113
330
1F
100
AcDbEntity
  8
0
  6
Continuous
 62
     2
100
AcDbLine
 10
423.0541841468941
 20
159.8469724269806
 30
0.0
 11
426.0541841468941
 21
159.8469724269806
 31
0.0
  0
LINE
  5
114
330
1F
100
AcDbEntity
  8
0
  6
Continuous
 62
     7
100
AcDbLine
 10
425.0541841468941
 20
160.8469724269806
 30
0.0
 11
423.0541841468941
 21
160.8469724269806
 31
0.0
  0
LINE
  5
115
330
1F
100
AcDbEntity
  8
0
  6
Continuous
 62
     7
100
AcDbLine
 10
423.0541841468941
 20
160.8469724269806
 30
0.0
 11
421.5541841468941
 21
160.8469724269806
 31
0.0
  0
LINE
  5
116
330
1F
100
AcDbEntity
  8
0
  6
Continuous
 62
     7
100
AcDbLine
 10
495.5541841468941
 20
160.8469724269806
 30
0.0
 11
485.5541841468941
 21
160.8469724269806
 31
0.0
  0
LINE
  5
117
330
1F
100
AcDbEntity
  8
0
  6
Continuous
 62
     2
100
AcDbLine
 10
523.7654089953518
 20
166.7771959672993
 30
0.0
 11
523.0654089953517
 21
167.9896315325975
 31
0.0
  0
LINE
  5
118
330
1F
100
AcDbEntity
  8
0
  6
Continuous
 62
     7
100
AcDbLine
 10
520.562264260842
 20
164.9278594925767
 30
0.0
 11
519.8622642608419
 21
166.1402950578749
 31
0.0
  0
LINE
  5
119
330
1F
100
AcDbEntity
  8
0
  6
Continuous
 62
     2
100
AcDbLine
 10
527.570442227788
 20
167.846616631628
 30
0.0
 11
527.5363230434644
 21
169.2462008131838
 31
0.0
  0
LINE
  5
11A
330
1F
100
AcDbEntity
  8
0
  6
Continuous
 62
     2
100
AcDbLine
 10
538.5610785785015
 20
164.4702950578749
 30
0.0
 11
537.8610785785014
 21
163.2578594925766
 31
0.0
  0
LINE
  5
11B
330
1F
100
AcDbEntity
  8
0
  6
Continuous
 62
     7
100
AcDbLine
 10
514.2457595487582
 20
175.868366580154
 30
0.0
 11
496.6541841468942
 21
188.994397156141
 31
0.0
  0
LINE
  5
11C
330
1F
100
AcDbEntity
  8
0
  6
Continuous
 62
     2
100
AcDbLine
 10
485.5541841468941
 20
159.8469724269806
 30
0.0
 11
496.5541841468941
 21
159.8469724269806
 31
0.0
  0
LINE
  5
11D
330
1F
100
AcDbEntity
  8
0
  6
Continuous
 62
     2
100
AcDbLine
 10
479.0541841468941
 20
159.8469724269806
 30
0.0
 11
485.5541841468941
 21
159.8469724269806
 31
0.0
  0
LINE
  5
11E
330
1F
100
AcDbEntity
  8
0
  6
Continuous
 62
     2
100
AcDbLine
 10
480.5541841468941
 20
161.8469724269806
 30
0.0
 11
475.0541841468941
 21
161.8469724269806
 31
0.0
  0
LINE
  5
11F
330
1F
100
AcDbEntity
  8
0
  6
Continuous
 62
     2
100
AcDbLine
 10
485.5541841468941
 20
159.8469724269806
 30
0.0
 11
485.5541841468941
 21
160.8469724269806
 31
0.0
  0
LINE
  5
120
330
1F
100
AcDbEntity
  8
0
  6
Continuous
 62
     7
100
AcDbLine
 10
496.5541841468942
 20
161.8469724269806
 30
0.0
 11
496.5541841468941
 21
159.8469724269806
 31
0.0
  0
LINE
  5
121
330
1F
100
AcDbEntity
  8
0
  6
Continuous
 62
     7
100
AcDbLine
 10
496.5541841468941
 20
167.0469724269806
 30
0.0
 11
496.5541841468942
 21
161.8469724269806
 31
0.0
  0
LINE
  5
122
330
1F
100
AcDbEntity
  8
0
  6
Continuous
 62
     7
100
AcDbLine
 10
496.6541841468942
 20
189.5469724269806
 30
0.0
 11
496.6541841468942
 21
188.994397156141
 31
0.0
  0
LINE
  5
123
330
1F
100
AcDbEntity
  8
0
  6
Continuous
 62
     7
100
AcDbLine
 10
495.9136198547492
 20
189.5469724269806
 30
0.0
 11
496.6541841468942
 21
189.5469724269806
 31
0.0
  0
LINE
  5
124
330
1F
100
AcDbEntity
  8
0
  6
Continuous
 62
     7
100
AcDbLine
 10
515.8622642608419
 20
173.0684982881504
 30
0.0
 11
514.2457595487582
 21
175.868366580154
 31
0.0
  0
LINE
  5
125
330
1F
100
AcDbEntity
  8
0
  6
Continuous
 62
     2
100
AcDbLine
 10
500.273806992722
 20
164.0684982881505
 30
0.0
 11
515.8622642608419
 21
173.0684982881504
 31
0.0
  0
LINE
  5
126
330
1F
100
AcDbEntity
  8
0
  6
Continuous
 62
     7
100
AcDbLine
 10
519.8622642608419
 20
166.1402950578749
 30
0.0
 11
515.8622642608419
 21
173.0684982881504
 31
0.0
  0
LINE
  5
127
330
1F
100
AcDbEntity
  8
0
  6
Continuous
 62
     7
100
AcDbLine
 10
496.6541841468942
 20
188.994397156141
 30
0.0
 11
495.9136198547492
 21
189.5469724269806
 31
0.0
  0
LINE
  5
128
330
1F
100
AcDbEntity
  8
0
  6
Continuous
 62
     7
100
AcDbLine
 10
446.0541841468941
 20
167.0469724269806
 30
0.0
 11
498.554184146894
 21
167.0469724269806
 31
0.0
  0
LINE
  5
129
330
1F
100
AcDbEntity
  8
0
  6
Continuous
 62
     7
100
AcDbLine
 10
498.554184146894
 20
167.0469724269806
 30
0.0
 11
500.273806992722
 21
164.0684982881505
 31
0.0
  0
LINE
  5
12A
330
1F
100
AcDbEntity
  8
0
  6
Continuous
 62
     7
100
AcDbLine
 10
543.7572310012082
 20
161.4702950578749
 30
0.0
 11
543.0572310012082
 21
160.2578594925766
 31
0.0
  0
LINE
  5
12B
330
1F
100
AcDbEntity
  8
0
  6
Continuous
 62
     7
100
AcDbLine
 10
500.273806992722
 20
164.0684982881505
 30
0.0
 11
504.9738069927221
 21
155.9278594925767
 31
0.0
  0
LINE
  5
12C
330
1F
100
AcDbEntity
  8
0
  6
Continuous
 62
     7
100
AcDbLine
 10
496.5541841468941
 20
152.8469724269806
 30
0.0
 11
485.5541841468941
 21
152.8469724269806
 31
0.0
  0
LINE
  5
12D
330
1F
100
AcDbEntity
  8
0
  6
Continuous
 62
     2
100
AcDbLine
 10
423.0541841468941
 20
157.3469724269806
 30
0.0
 11
479.0541841468941
 21
157.3469724269806
 31
0.0
  0
LINE
  5
12E
330
1F
100
AcDbEntity
  8
0
  6
Continuous
 62
     2
100
AcDbLine
 10
475.0541841468941
 20
159.3469724269806
 30
0.0
 11
427.0541841468941
 21
159.3469724269806
 31
0.0
  0
LINE
  5
12F
330
1F
100
AcDbEntity
  8
0
  6
Continuous
 62
     7
100
AcDbLine
 10
427.0541841468941
 20
158.3469724269806
 30
0.0
 11
475.0541841468941
 21
158.3469724269806
 31
0.0
  0
LINE
  5
130
330
1F
100
AcDbEntity
  8
0
  6
Continuous
 62
     7
100
AcDbLine
 10
496.5541841468941
 20
152.8469724269806
 30
0.0
 11
496.5541841468941
 21
159.8469724269806
 31
0.0
  0
LINE
  5
131
330
1F
100
AcDbEntity
  8
0
  6
Continuous
 62
     7
100
AcDbLine
 10
497.5541841468941
 20
149.3469724269806
 30
0.0
 11
497.5541841468941
 21
152.8469724269806
 31
0.0
  0
LINE
  5
132
330
1F
100
AcDbEntity
  8
0
  6
Continuous
 62
     7
100
AcDbLine
 10
497.5541841468941
 20
152.8469724269806
 30
0.0
 11
496.5541841468941
 21
152.8469724269806
 31
0.0
  0
LINE
  5
133
330
1F
100
AcDbEntity
  8
0
  6
Continuous
 62
     7
100
AcDbLine
 10
497.5541841468941
 20
149.3469724269806
 30
0.0
 11
485.5541841468941
 21
149.3469724269806
 31
0.0
  0
LINE
  5
134
330
1F
100
AcDbEntity
  8
0
  6
Continuous
 62
     2
100
AcDbLine
 10
427.0541841468941
 20
158.3469724269806
 30
0.0
 11
427.0541841468941
 21
159.3469724269806
 31
0.0
  0
LINE
  5
135
330
1F
100
AcDbEntity
  8
0
  6
Continuous
 62
     2
100
AcDbLine
 10
427.0541841468941
 20
161.8469724269806
 30
0.0
 11
425.0541841468941
 21
160.8469724269806
 31
0.0
  0
LINE
  5
136
330
1F
100
AcDbEntity
  8
0
  6
Continuous
 62
     2
100
AcDbLine
 10
426.0541841468941
 20
159.8469724269806
 30
0.0
 11
427.0541841468941
 21
161.8469724269806
 31
0.0
  0
LINE
  5
137
330
1F
100
AcDbEntity
  8
0
  6
Continuous
 62
     2
100
AcDbLine
 10
427.0541841468941
 20
159.3469724269806
 30
0.0
 11
426.0541841468941
 21
159.3469724269806
 31
0.0
  0
LINE
  5
138
330
1F
100
AcDbEntity
  8
0
  6
Continuous
 62
     2
100
AcDbLine
 10
427.0541841468941
 20
159.3469724269806
 30
0.0
 11
427.0541841468941
 21
161.8469724269806
 31
0.0
  0
LINE
  5
139
330
1F
100
AcDbEntity
  8
0
  6
Continuous
 62
     7
100
AcDbLine
 10
426.0541841468941
 20
159.3469724269806
 30
0.0
 11
426.0541841468941
 21
159.8469724269806
 31
0.0
  0
LINE
  5
13A
330
1F
100
AcDbEntity
  8
0
  6
Continuous
 62
     2
100
AcDbLine
 10
426.0541841468941
 20
159.3469724269806
 30
0.0
 11
425.6522603582519
 21
159.3469724269806
 31
0.0
  0
LINE
  5
13B
330
1F
100
AcDbEntity
  8
0
  6
Continuous
 62
     7
100
AcDbLine
 10
426.5182857620378
 20
158.3469724269806
 30
0.0
 11
427.0541841468941
 21
158.3469724269806
 31
0.0
  0
LINE
  5
13C
330
1F
100
AcDbEntity
  8
0
  6
Continuous
 62
     7
100
AcDbLine
 10
441.0541841468941
 20
197.0469724269806
 30
0.0
 11
441.0541841468941
 21
189.5469724269806
 31
0.0
  0
LINE
  5
13D
330
1F
100
AcDbEntity
  8
0
  6
Continuous
 62
     2
100
AcDbLine
 10
475.0541841468941
 20
161.8469724269806
 30
0.0
 11
476.0541841468941
 21
159.8469724269806
 31
0.0
  0
LINE
  5
13E
330
1F
100
AcDbEntity
  8
0
  6
Continuous
 62
     2
100
AcDbLine
 10
477.0541841468941
 20
160.8469724269806
 30
0.0
 11
475.0541841468941
 21
161.8469724269806
 31
0.0
  0
LINE
  5
13F
330
1F
100
AcDbEntity
  8
0
  6
Continuous
 62
     7
100
AcDbLine
 10
465.9084328358295
 20
184.0469724269806
 30
0.0
 11
471.1999354579587
 21
184.0469724269806
 31
0.0
  0
LINE
  5
140
330
1F
100
AcDbEntity
  8
0
  6
Continuous
 62
     7
100
AcDbLine
 10
465.6898104036616
 20
184.2549546872304
 30
0.0
 11
460.5314725843167
 21
189.5469724269806
 31
0.0
  0
LINE
  5
141
330
1F
100
AcDbEntity
  8
0
  6
Continuous
 62
     2
100
AcDbLine
 10
476.4561079355408
 20
159.3469724269806
 30
0.0
 11
476.0541841468941
 21
159.3469724269806
 31
0.0
  0
LINE
  5
142
330
1F
100
AcDbEntity
  8
0
  6
Continuous
 62
     2
100
AcDbLine
 10
476.0541841468941
 20
159.3469724269806
 30
0.0
 11
475.0541841468941
 21
159.3469724269806
 31
0.0
  0
LINE
  5
143
330
1F
100
AcDbEntity
  8
0
  6
Continuous
 62
     2
100
AcDbLine
 10
475.0541841468941
 20
161.8469724269806
 30
0.0
 11
475.0541841468941
 21
159.3469724269806
 31
0.0
  0
LINE
  5
144
330
1F
100
AcDbEntity
  8
0
  6
Continuous
 62
     7
100
AcDbLine
 10
476.0541841468941
 20
159.3469724269806
 30
0.0
 11
476.0541841468941
 21
159.8469724269806
 31
0.0
  0
LINE
  5
145
330
1F
100
AcDbEntity
  8
0
  6
Continuous
 62
     7
100
AcDbLine
 10
475.0541841468941
 20
158.3469724269806
 30
0.0
 11
475.5900825317564
 21
158.3469724269806
 31
0.0
  0
LINE
  5
146
330
1F
100
AcDbEntity
  8
0
  6
Continuous
 62
     2
100
AcDbLine
 10
475.0541841468941
 20
159.3469724269806
 30
0.0
 11
475.0541841468941
 21
158.3469724269806
 31
0.0
  0
LINE
  5
147
330
1F
100
AcDbEntity
  8
0
  6
Continuous
 62
     7
100
AcDbLine
 10
453.5541841468941
 20
172.7168454080584
 30
0.0
 11
451.0951447002809
 21
171.2971183216083
 31
0.0
  0
LINE
  5
148
330
1F
100
AcDbEntity
  8
0
  6
Continuous
 62
     7
100
AcDbLine
 10
451.0951447002809
 20
182.7968265323528
 30
0.0
 11
453.5541841468941
 21
181.3770994459028
 31
0.0
  0
LINE
  5
149
330
1F
100
AcDbEntity
  8
0
  6
Continuous
 62
     7
100
AcDbLine
 10
460.5314725843167
 20
189.5469724269806
 30
0.0
 11
471.6766831460934
 21
189.5469724269806
 31
0.0
  0
LINE
  5
14A
330
1F
100
AcDbEntity
  8
0
  6
Continuous
 62
     7
100
AcDbLine
 10
460.5314725843167
 20
189.5469724269806
 30
0.0
 11
454.2151185049756
 21
196.0270167763561
 31
0.0
  0
LINE
  5
14B
330
1F
100
AcDbEntity
  8
0
  6
Continuous
 62
     7
100
AcDbLine
 10
396.0541841468941
 20
292.5570229333195
 30
0.0
 11
396.6922576118723
 21
288.9383284918076
 31
0.0
  0
LINE
  5
14C
330
1F
100
AcDbEntity
  8
0
  6
Continuous
 62
     7
100
AcDbLine
 10
392.4750110821779
 20
285.1634688218542
 30
0.0
 11
394.4561079355408
 21
292.5570229333195
 31
0.0
  0
LINE
  5
14D
330
1F
100
AcDbEntity
  8
0
  6
Continuous
 62
     7
100
AcDbLine
 10
401.1541841468941
 20
273.9383284918076
 30
0.0
 11
401.1541841468941
 21
288.9383284918076
 31
0.0
  0
LINE
  5
14E
330
1F
100
AcDbEntity
  8
0
  6
Continuous
 62
     7
100
AcDbLine
 10
416.5541841468941
 20
149.3469724269806
 30
0.0
 11
404.5541841468941
 21
149.3469724269806
 31
0.0
  0
LINE
  5
14F
330
1F
100
AcDbEntity
  8
0
  6
Continuous
 62
     7
100
AcDbLine
 10
485.5541841468941
 20
149.3469724269806
 30
0.0
 11
416.5541841468941
 21
149.3469724269806
 31
0.0
  0
LINE
  5
150
330
1F
100
AcDbEntity
  8
0
  6
Continuous
 62
     2
100
AcDbLine
 10
423.0541841468941
 20
159.8469724269806
 30
0.0
 11
423.0541841468941
 21
160.8469724269806
 31
0.0
  0
LINE
  5
151
330
1F
100
AcDbEntity
  8
0
  6
Continuous
 62
     2
100
AcDbLine
 10
423.0541841468941
 20
157.3469724269806
 30
0.0
 11
423.0541841468941
 21
159.8469724269806
 31
0.0
  0
LINE
  5
152
330
1F
100
AcDbEntity
  8
0
  6
Continuous
 62
     2
100
AcDbLine
 10
416.5541841468941
 20
152.8469724269806
 30
0.0
 11
416.5541841468941
 21
159.8469724269806
 31
0.0
  0
LINE
  5
153
330
1F
100
AcDbEntity
  8
0
  6
Continuous
 62
     2
100
AcDbLine
 10
416.5541841468941
 20
149.3469724269806
 30
0.0
 11
416.5541841468941
 21
152.8469724269806
 31
0.0
  0
LINE
  5
154
330
1F
100
AcDbEntity
  8
0
  6
Continuous
 62
     7
100
AcDbLine
 10
485.5541841468941
 20
152.8469724269806
 30
0.0
 11
416.5541841468941
 21
152.8469724269806
 31
0.0
  0
LINE
  5
155
330
1F
100
AcDbEntity
  8
0
  6
Continuous
 62
     7
100
AcDbLine
 10
404.5541841468941
 20
149.3469724269806
 30
0.0
 11
404.5541841468941
 21
152.8469724269806
 31
0.0
  0
LINE
  5
156
330
1F
100
AcDbEntity
  8
0
  6
Continuous
 62
     7
100
AcDbLine
 10
416.5541841468941
 20
152.8469724269806
 30
0.0
 11
405.5541841468941
 21
152.8469724269806
 31
0.0
  0
LINE
  5
157
330
1F
100
AcDbEntity
  8
0
  6
Continuous
 62
     7
100
AcDbLine
 10
405.5541841468941
 20
152.8469724269806
 30
0.0
 11
404.5541841468941
 21
152.8469724269806
 31
0.0
  0
LINE
  5
158
330
1F
100
AcDbEntity
  8
0
  6
Continuous
 62
     7
100
AcDbLine
 10
405.5541841468941
 20
152.8469724269806
 30
0.0
 11
405.5541841468941
 21
159.8469724269806
 31
0.0
  0
LINE
  5
159
330
1F
100
AcDbEntity
  8
0
  6
Continuous
 62
     7
100
AcDbLine
 10
405.5541841468941
 20
161.8469724269806
 30
0.0
 11
405.5541841468941
 21
165.8469724269806
 31
0.0
  0
LINE
  5
15A
330
1F
100
AcDbEntity
  8
0
  6
Continuous
 62
     2
100
AcDbLine
 10
401.1541841468941
 20
273.9383284918076
 30
0.0
 11
394.3541841468942
 21
273.9383284918076
 31
0.0
  0
LINE
  5
15B
330
1F
100
AcDbEntity
  8
0
  6
Continuous
 62
     7
100
AcDbLine
 10
394.3541841468942
 20
273.6634688218542
 30
0.0
 11
394.3541841468942
 21
247.0570229333195
 31
0.0
  0
LINE
  5
15C
330
1F
100
AcDbEntity
  8
0
  6
Continuous
 62
     7
100
AcDbLine
 10
394.3541841468942
 20
273.9383284918076
 30
0.0
 11
394.3541841468942
 21
273.6634688218542
 31
0.0
  0
LINE
  5
15D
330
1F
100
AcDbEntity
  8
0
  6
Continuous
 62
     7
100
AcDbLine
 10
401.1541841468941
 20
273.9383284918076
 30
0.0
 11
401.1541841468941
 21
211.1757173748313
 31
0.0
  0
LINE
  5
15E
330
1F
100
AcDbEntity
  8
0
  6
Continuous
 62
     7
100
AcDbLine
 10
394.4561079355408
 20
292.5570229333195
 30
0.0
 11
396.0541841468941
 21
292.5570229333195
 31
0.0
  0
LINE
  5
15F
330
1F
100
AcDbEntity
  8
0
  6
Continuous
 62
     7
100
AcDbLine
 10
396.6922576118723
 20
288.9383284918076
 30
0.0
 11
394.3541841468942
 21
288.9383284918076
 31
0.0
  0
LINE
  5
160
330
1F
100
AcDbEntity
  8
0
  6
Continuous
 62
     7
100
AcDbLine
 10
401.1541841468941
 20
288.9383284918076
 30
0.0
 11
396.6922576118723
 21
288.9383284918076
 31
0.0
  0
LINE
  5
161
330
1F
100
AcDbEntity
  8
0
  6
Continuous
 62
     7
100
AcDbLine
 10
394.3541841468942
 20
273.9383284918076
 30
0.0
 11
394.3541841468942
 21
285.1634688218542
 31
0.0
  0
LINE
  5
162
330
1F
100
AcDbEntity
  8
0
  6
Continuous
 62
     7
100
AcDbLine
 10
394.3541841468942
 20
285.1634688218542
 30
0.0
 11
394.3541841468942
 21
288.9383284918076
 31
0.0
  0
LINE
  5
163
330
1F
100
AcDbEntity
  8
0
  6
Continuous
 62
     7
100
AcDbLine
 10
394.3541841468942
 20
285.1634688218542
 30
0.0
 11
392.4750110821779
 21
285.1634688218542
 31
0.0
  0
LINE
  5
164
330
1F
100
AcDbEntity
  8
0
  6
Continuous
 62
     2
100
AcDbLine
 10
394.3541841468942
 20
211.4566112295201
 30
0.0
 11
380.5541841468941
 21
211.4566112295201
 31
0.0
  0
LINE
  5
165
330
1F
100
AcDbEntity
  8
0
  6
Continuous
 62
     7
100
AcDbLine
 10
382.0132224398475
 20
199.9566112295201
 30
0.0
 11
394.3541841468942
 21
199.9566112295201
 31
0.0
  0
LINE
  5
166
330
1F
100
AcDbEntity
  8
0
  6
Continuous
 62
     2
100
AcDbLine
 10
380.5541841468941
 20
211.4566112295201
 30
0.0
 11
380.5541841468941
 21
199.9566112295201
 31
0.0
  0
LINE
  5
167
330
1F
100
AcDbEntity
  8
0
  6
Continuous
 62
     7
100
AcDbLine
 10
377.0541841468941
 20
211.2243306333195
 30
0.0
 11
377.0541841468941
 21
203.4566112295201
 31
0.0
  0
LINE
  5
168
330
1F
100
AcDbEntity
  8
0
  6
Continuous
 62
     7
100
AcDbLine
 10
394.3541841468942
 20
196.1757173748313
 30
0.0
 11
394.3541841468942
 21
199.9566112295201
 31
0.0
  0
LINE
  5
169
330
1F
100
AcDbEntity
  8
0
  6
Continuous
 62
     2
100
AcDbLine
 10
427.0541841468941
 20
161.8469724269806
 30
0.0
 11
421.5541841468941
 21
161.8469724269806
 31
0.0
  0
LINE
  5
16A
330
1F
100
AcDbEntity
  8
0
  6
Continuous
 62
     7
100
AcDbLine
 10
446.0951447002809
 20
174.1365724945084
 30
0.0
 11
448.5541841468941
 21
172.7168454080584
 31
0.0
  0
LINE
  5
16B
330
1F
100
AcDbEntity
  8
0
  6
Continuous
 62
     7
100
AcDbLine
 10
448.5541841468941
 20
181.3770994459028
 30
0.0
 11
446.0951447002809
 21
179.9573723594527
 31
0.0
  0
LINE
  5
16C
330
1F
100
AcDbEntity
  8
0
  6
Continuous
 62
     7
100
AcDbLine
 10
448.5541841468941
 20
181.3770994459028
 30
0.0
 11
451.0132235935074
 21
182.7968265323528
 31
0.0
  0
LINE
  5
16D
330
1F
100
AcDbEntity
  8
0
  6
Continuous
 62
     7
100
AcDbLine
 10
451.0132235935074
 20
171.2971183216083
 30
0.0
 11
448.5541841468941
 21
172.7168454080584
 31
0.0
  0
LINE
  5
16E
330
1F
100
AcDbEntity
  8
0
  6
Continuous
 62
     2
100
AcDbLine
 10
421.5541841468941
 20
161.8469724269806
 30
0.0
 11
421.5541841468941
 21
184.0469724269806
 31
0.0
  0
LINE
  5
16F
330
1F
100
AcDbEntity
  8
0
  6
Continuous
 62
     7
100
AcDbLine
 10
446.0541841468941
 20
177.0469724269806
 30
0.0
 11
446.0541841468941
 21
174.2075182540805
 31
0.0
  0
LINE
  5
170
330
1F
100
AcDbEntity
  8
0
  6
Continuous
 62
     7
100
AcDbLine
 10
446.0541841468941
 20
179.8864265998807
 30
0.0
 11
446.0541841468941
 21
177.0469724269806
 31
0.0
  0
LINE
  5
171
330
1F
100
AcDbEntity
  8
0
  6
Continuous
 62
     7
100
AcDbLine
 10
441.0541841468941
 20
172.0469724269806
 30
0.0
 11
441.0541841468941
 21
184.0469724269806
 31
0.0
  0
LINE
  5
172
330
1F
100
AcDbEntity
  8
0
  6
Continuous
 62
     7
100
AcDbLine
 10
441.0541841468941
 20
189.5469724269806
 30
0.0
 11
441.0541841468941
 21
184.0469724269806
 31
0.0
  0
LINE
  5
173
330
1F
100
AcDbEntity
  8
0
  6
Continuous
 62
     7
100
AcDbLine
 10
421.5541841468941
 20
189.5469724269806
 30
0.0
 11
441.0541841468941
 21
189.5469724269806
 31
0.0
  0
LINE
  5
174
330
1F
100
AcDbEntity
  8
0
  6
Continuous
 62
     7
100
AcDbLine
 10
421.5541841468941
 20
184.0469724269806
 30
0.0
 11
441.0541841468941
 21
184.0469724269806
 31
0.0
  0
LINE
  5
175
330
1F
100
AcDbEntity
  8
0
  6
Continuous
 62
     7
100
AcDbLine
 10
453.5541841468941
 20
172.7168454080584
 30
0.0
 11
456.0132235935074
 21
174.1365724945085
 31
0.0
  0
LINE
  5
176
330
1F
100
AcDbEntity
  8
0
  6
Continuous
 62
     7
100
AcDbLine
 10
456.0541841468941
 20
177.0469724269806
 30
0.0
 11
456.0541841468941
 21
174.2075182540804
 31
0.0
  0
LINE
  5
177
330
1F
100
AcDbEntity
  8
0
  6
Continuous
 62
     7
100
AcDbLine
 10
456.0132235935075
 20
179.9573723594527
 30
0.0
 11
453.5541841468941
 21
181.3770994459028
 31
0.0
  0
LINE
  5
178
330
1F
100
AcDbEntity
  8
0
  6
Continuous
 62
     7
100
AcDbLine
 10
456.0541841468941
 20
179.8864265998808
 30
0.0
 11
456.0541841468941
 21
177.0469724269806
 31
0.0
  0
LINE
  5
179
330
1F
100
AcDbEntity
  8
0
  6
Continuous
 62
     7
100
AcDbLine
 10
380.5541841468941
 20
199.9566112295201
 30
0.0
 11
382.0132224398475
 21
199.9566112295201
 31
0.0
  0
LINE
  5
17A
330
1F
100
AcDbEntity
  8
0
  6
Continuous
 62
     7
100
AcDbLine
 10
394.3541841468942
 20
211.1757173748313
 30
0.0
 11
394.3541841468942
 21
211.4566112295201
 31
0.0
  0
LINE
  5
17B
330
1F
100
AcDbEntity
  8
0
  6
Continuous
 62
     7
100
AcDbLine
 10
376.5541841468941
 20
216.0701359714803
 30
0.0
 11
376.5541841468941
 21
216.3592942951588
 31
0.0
  0
LINE
  5
17C
330
1F
100
AcDbEntity
  8
0
  6
Continuous
 62
     7
100
AcDbLine
 10
376.5541841468941
 20
211.2681854510792
 30
0.0
 11
376.5541841468941
 21
211.2243306333195
 31
0.0
  0
LINE
  5
17D
330
1F
100
AcDbEntity
  8
0
  6
Continuous
 62
     2
100
AcDbLine
 10
377.0541841468941
 20
216.0701359714803
 30
0.0
 11
376.5541841468941
 21
216.0701359714803
 31
0.0
  0
LINE
  5
17E
330
1F
100
AcDbEntity
  8
0
  6
Continuous
 62
     7
100
AcDbLine
 10
377.0541841468941
 20
216.3592942951587
 30
0.0
 11
377.0541841468941
 21
216.0701359714803
 31
0.0
  0
LINE
  5
17F
330
1F
100
AcDbEntity
  8
0
  6
Continuous
 62
     2
100
AcDbLine
 10
377.0541841468941
 20
211.2681854510791
 30
0.0
 11
376.5541841468941
 21
211.2681854510792
 31
0.0
  0
LINE
  5
180
330
1F
100
AcDbEntity
  8
0
  6
Continuous
 62
     7
100
AcDbLine
 10
377.0541841468941
 20
211.4566112295201
 30
0.0
 11
377.0541841468941
 21
211.2681854510791
 31
0.0
  0
LINE
  5
181
330
1F
100
AcDbEntity
  8
0
  6
Continuous
 62
     7
100
AcDbLine
 10
377.0541841468941
 20
211.2681854510791
 30
0.0
 11
377.0541841468941
 21
211.2243306333195
 31
0.0
  0
LINE
  5
182
330
1F
100
AcDbEntity
  8
0
  6
Continuous
 62
     7
100
AcDbLine
 10
376.5541841468941
 20
211.2243306333195
 30
0.0
 11
377.0541841468941
 21
211.2243306333195
 31
0.0
  0
LINE
  5
183
330
1F
100
AcDbEntity
  8
0
  6
Continuous
 62
     2
100
AcDbLine
 10
377.0541841468941
 20
216.3592942951587
 30
0.0
 11
376.5541841468941
 21
216.3592942951588
 31
0.0
  0
LINE
  5
184
330
1F
100
AcDbEntity
  8
0
  6
Continuous
 62
     2
100
AcDbLine
 10
380.5541841468941
 20
211.4566112295201
 30
0.0
 11
377.0541841468941
 21
211.4566112295201
 31
0.0
  0
LINE
  5
185
330
1F
100
AcDbEntity
  8
0
  6
Continuous
 62
     7
100
AcDbLine
 10
377.0541841468941
 20
216.0701359714803
 30
0.0
 11
377.0541841468941
 21
211.4566112295201
 31
0.0
  0
LINE
  5
186
330
1F
100
AcDbEntity
  8
0
  6
Continuous
 62
     7
100
AcDbLine
 10
376.5541841468941
 20
216.0701359714803
 30
0.0
 11
376.5541841468941
 21
211.2681854510792
 31
0.0
  0
LINE
  5
187
330
1F
100
AcDbEntity
  8
0
  6
Continuous
 62
     2
100
AcDbLine
 10
377.0541841468941
 20
221.1612448155795
 30
0.0
 11
376.5541841468941
 21
221.1612447933749
 31
0.0
  0
LINE
  5
188
330
1F
100
AcDbEntity
  8
0
  6
Continuous
 62
     7
100
AcDbLine
 10
377.0541841468941
 20
221.1612448155795
 30
0.0
 11
377.0541841468941
 21
216.3592942951587
 31
0.0
  0
LINE
  5
189
330
1F
100
AcDbEntity
  8
0
  6
Continuous
 62
     7
100
AcDbLine
 10
376.5541841468941
 20
221.1612447933749
 30
0.0
 11
376.5541841468941
 21
216.3592942951588
 31
0.0
  0
LINE
  5
18A
330
1F
100
AcDbEntity
  8
0
  6
Continuous
 62
     7
100
AcDbLine
 10
376.5541841468941
 20
221.2050996186006
 30
0.0
 11
376.5541841468941
 21
221.1612447933749
 31
0.0
  0
LINE
  5
18B
330
1F
100
AcDbEntity
  8
0
  6
Continuous
 62
     7
100
AcDbLine
 10
376.5541841468941
 20
221.2050996186006
 30
0.0
 11
377.0541841468941
 21
221.2050996186006
 31
0.0
  0
LINE
  5
18C
330
1F
100
AcDbEntity
  8
0
  6
Continuous
 62
     7
100
AcDbLine
 10
255.9038602420215
 20
161.4702950578749
 30
0.0
 11
293.9045080536865
 21
161.4702950578749
 31
0.0
  0
LINE
  5
18D
330
1F
100
AcDbEntity
  8
0
  6
Continuous
 62
     2
100
AcDbLine
 10
293.9045080536865
 20
161.4702950578749
 30
0.0
 11
293.9045080536865
 21
160.2578594925767
 31
0.0
  0
LINE
  5
18E
330
1F
100
AcDbEntity
  8
0
  6
Continuous
 62
     2
100
AcDbLine
 10
203.154184147854
 20
159.8469724269806
 30
0.0
 11
205.7668673056027
 21
159.8469724269806
 31
0.0
  0
LINE
  5
18F
330
1F
100
AcDbEntity
  8
0
  6
Continuous
 62
     7
100
AcDbLine
 10
255.9038602420215
 20
160.2578594925766
 30
0.0
 11
293.9045080536865
 21
160.2578594925767
 31
0.0
  0
LINE
  5
190
330
1F
100
AcDbEntity
  8
0
  6
Continuous
 62
     2
100
AcDbLine
 10
255.9038602420215
 20
161.4702950578749
 30
0.0
 11
255.9038602420215
 21
160.2578594925766
 31
0.0
  0
LINE
  5
191
330
1F
100
AcDbEntity
  8
0
  6
Continuous
 62
     2
100
AcDbLine
 10
346.6541841478541
 20
160.8469724269806
 30
0.0
 11
346.6541841478541
 21
159.8469724269806
 31
0.0
  0
LINE
  5
192
330
1F
100
AcDbEntity
  8
0
  6
Continuous
 62
     7
100
AcDbLine
 10
346.6541841478541
 20
160.8469724269806
 30
0.0
 11
344.6367870155823
 21
160.8469724269806
 31
0.0
  0
LINE
  5
193
330
1F
100
AcDbEntity
  8
0
  6
Continuous
 62
     2
100
AcDbLine
 10
346.654184147854
 20
149.3469724269806
 30
0.0
 11
346.654184147854
 21
152.8469724269806
 31
0.0
  0
LINE
  5
194
330
1F
100
AcDbEntity
  8
0
  6
Continuous
 62
     2
100
AcDbLine
 10
346.654184147854
 20
152.8469724269806
 30
0.0
 11
346.6541841478541
 21
159.8469724269806
 31
0.0
  0
LINE
  5
195
330
1F
100
AcDbEntity
  8
0
  6
Continuous
 62
     2
100
AcDbLine
 10
336.004184147854
 20
155.9278594925768
 30
0.0
 11
336.004184147854
 21
164.9278594925766
 31
0.0
  0
LINE
  5
196
330
1F
100
AcDbEntity
  8
0
  6
Continuous
 62
     7
100
AcDbLine
 10
358.654184147854
 20
149.3469724269806
 30
0.0
 11
358.654184147854
 21
152.8469724269806
 31
0.0
  0
LINE
  5
197
330
1F
100
AcDbEntity
  8
0
  6
Continuous
 62
     7
100
AcDbLine
 10
357.6541841478541
 20
152.8469724269806
 30
0.0
 11
346.654184147854
 21
152.8469724269806
 31
0.0
  0
LINE
  5
198
330
1F
100
AcDbEntity
  8
0
  6
Continuous
 62
     7
100
AcDbLine
 10
358.654184147854
 20
152.8469724269806
 30
0.0
 11
357.6541841478541
 21
152.8469724269806
 31
0.0
  0
LINE
  5
199
330
1F
100
AcDbEntity
  8
0
  6
Continuous
 62
     7
100
AcDbLine
 10
358.654184147854
 20
149.3469724269806
 30
0.0
 11
346.654184147854
 21
149.3469724269806
 31
0.0
  0
LINE
  5
19A
330
1F
100
AcDbEntity
  8
0
  6
Continuous
 62
     7
100
AcDbLine
 10
357.6541841478541
 20
152.8469724269806
 30
0.0
 11
357.654184147854
 21
159.8469724269806
 31
0.0
  0
LINE
  5
19B
330
1F
100
AcDbEntity
  8
0
  6
Continuous
 62
     7
100
AcDbLine
 10
346.654184147854
 20
171.2969724269806
 30
0.0
 11
346.654184147854
 21
173.1469724269806
 31
0.0
  0
LINE
  5
19C
330
1F
100
AcDbEntity
  8
0
  6
Continuous
 62
     7
100
AcDbLine
 10
346.654184147854
 20
173.1469724269806
 30
0.0
 11
345.404184147854
 21
173.1469724269806
 31
0.0
  0
LINE
  5
19D
330
1F
100
AcDbEntity
  8
0
  6
Continuous
 62
     7
100
AcDbLine
 10
344.004184147854
 20
175.868366580154
 30
0.0
 11
344.004184147854
 21
180.9469724269806
 31
0.0
  0
LINE
  5
19E
330
1F
100
AcDbEntity
  8
0
  6
Continuous
 62
     7
100
AcDbLine
 10
344.004184147854
 20
173.1469724269806
 30
0.0
 11
344.004184147854
 21
175.868366580154
 31
0.0
  0
LINE
  5
19F
330
1F
100
AcDbEntity
  8
0
  6
Continuous
 62
     7
100
AcDbLine
 10
342.6541841478541
 20
173.1469724269806
 30
0.0
 11
342.6541841478541
 21
180.9469724269806
 31
0.0
  0
LINE
  5
1A0
330
1F
100
AcDbEntity
  8
0
  6
Continuous
 62
     7
100
AcDbLine
 10
342.6541841478541
 20
180.9469724269806
 30
0.0
 11
342.6541841478541
 21
184.0469724269806
 31
0.0
  0
LINE
  5
1A1
330
1F
100
AcDbEntity
  8
0
  6
Continuous
 62
     7
100
AcDbLine
 10
342.6541841478541
 20
169.2170892433812
 30
0.0
 11
342.6541841478541
 21
173.1469724269806
 31
0.0
  0
LINE
  5
1A2
330
1F
100
AcDbEntity
  8
0
  6
Continuous
 62
     7
100
AcDbLine
 10
345.404184147854
 20
173.0684982881504
 30
0.0
 11
345.404184147854
 21
164.0684982881505
 31
0.0
  0
LINE
  5
1A3
330
1F
100
AcDbEntity
  8
0
  6
Continuous
 62
     7
100
AcDbLine
 10
345.404184147854
 20
175.868366580154
 30
0.0
 11
345.404184147854
 21
180.9469724269806
 31
0.0
  0
LINE
  5
1A4
330
1F
100
AcDbEntity
  8
0
  6
Continuous
 62
     7
100
AcDbLine
 10
345.404184147854
 20
173.1469724269806
 30
0.0
 11
345.404184147854
 21
175.868366580154
 31
0.0
  0
LINE
  5
1A5
330
1F
100
AcDbEntity
  8
0
  6
Continuous
 62
     7
100
AcDbLine
 10
345.404184147854
 20
173.0684982881504
 30
0.0
 11
345.404184147854
 21
173.1469724269806
 31
0.0
  0
LINE
  5
1A6
330
1F
100
AcDbEntity
  8
0
  6
Continuous
 62
     7
100
AcDbLine
 10
344.004184147854
 20
175.868366580154
 30
0.0
 11
345.404184147854
 21
175.868366580154
 31
0.0
  0
LINE
  5
1A7
330
1F
100
AcDbEntity
  8
0
  6
Continuous
 62
     7
100
AcDbLine
 10
344.004184147854
 20
173.1469724269806
 30
0.0
 11
342.6541841478541
 21
173.1469724269806
 31
0.0
  0
LINE
  5
1A8
330
1F
100
AcDbEntity
  8
0
  6
Continuous
 62
     7
100
AcDbLine
 10
344.004184147854
 20
173.0684982881504
 30
0.0
 11
344.004184147854
 21
173.1469724269806
 31
0.0
  0
LINE
  5
1A9
330
1F
100
AcDbEntity
  8
0
  6
Continuous
 62
     7
100
AcDbLine
 10
346.654184147854
 20
182.7968265323528
 30
0.0
 11
349.2211714459618
 21
182.7969724269806
 31
0.0
  0
LINE
  5
1AA
330
1F
100
AcDbEntity
  8
0
  6
Continuous
 62
     7
100
AcDbLine
 10
346.654184147854
 20
179.9573723594527
 30
0.0
 11
346.654184147854
 21
180.9469724269806
 31
0.0
  0
LINE
  5
1AB
330
1F
100
AcDbEntity
  8
0
  6
Continuous
 62
     7
100
AcDbLine
 10
346.654184147854
 20
180.9469724269806
 30
0.0
 11
345.404184147854
 21
180.9469724269806
 31
0.0
  0
LINE
  5
1AC
330
1F
100
AcDbEntity
  8
0
  6
Continuous
 62
     7
100
AcDbLine
 10
344.004184147854
 20
180.9469724269806
 30
0.0
 11
342.6541841478541
 21
180.9469724269806
 31
0.0
  0
LINE
  5
1AD
330
1F
100
AcDbEntity
  8
0
  6
Continuous
 62
     2
100
AcDbLine
 10
192.154184147854
 20
159.8469724269806
 30
0.0
 11
203.154184147854
 21
159.8469724269806
 31
0.0
  0
LINE
  5
1AE
330
1F
100
AcDbEntity
  8
0
  6
Continuous
 62
     7
100
AcDbLine
 10
213.804184147854
 20
155.9278594925768
 30
0.0
 11
336.004184147854
 21
155.9278594925768
 31
0.0
  0
LINE
  5
1AF
330
1F
100
AcDbEntity
  8
0
  6
Continuous
 62
     7
100
AcDbLine
 10
191.154184147854
 20
149.3469724269806
 30
0.0
 11
191.154184147854
 21
152.8469724269806
 31
0.0
  0
LINE
  5
1B0
330
1F
100
AcDbEntity
  8
0
  6
Continuous
 62
     7
100
AcDbLine
 10
192.154184147854
 20
152.8469724269806
 30
0.0
 11
191.154184147854
 21
152.8469724269806
 31
0.0
  0
LINE
  5
1B1
330
1F
100
AcDbEntity
  8
0
  6
Continuous
 62
     7
100
AcDbLine
 10
203.154184147854
 20
149.3469724269806
 30
0.0
 11
191.154184147854
 21
149.3469724269806
 31
0.0
  0
LINE
  5
1B2
330
1F
100
AcDbEntity
  8
0
  6
Continuous
 62
     7
100
AcDbLine
 10
208.904184147854
 20
273.5570229333193
 30
0.0
 11
208.904184147854
 21
211.5570229333194
 31
0.0
  0
LINE
  5
1B3
330
1F
100
AcDbEntity
  8
0
  6
Continuous
 62
     7
100
AcDbLine
 10
200.154184147854
 20
182.0469724269805
 30
0.0
 11
200.5871968497463
 21
182.7968265323528
 31
0.0
  0
LINE
  5
1B4
330
1F
100
AcDbEntity
  8
0
  6
Continuous
 62
     7
100
AcDbLine
 10
200.154184147854
 20
172.0469724269806
 30
0.0
 11
200.5871968497463
 21
171.2971183216083
 31
0.0
  0
LINE
  5
1B5
330
1F
100
AcDbEntity
  8
0
  6
Continuous
 62
     7
100
AcDbLine
 10
204.404184147854
 20
164.0684982881505
 30
0.0
 11
204.404184147854
 21
173.0684982881504
 31
0.0
  0
LINE
  5
1B6
330
1F
100
AcDbEntity
  8
0
  6
Continuous
 62
     7
100
AcDbLine
 10
205.804184147854
 20
173.1469724269805
 30
0.0
 11
205.804184147854
 21
175.868366580154
 31
0.0
  0
LINE
  5
1B7
330
1F
100
AcDbEntity
  8
0
  6
Continuous
 62
     7
100
AcDbLine
 10
205.804184147854
 20
173.1469724269805
 30
0.0
 11
207.1541841478539
 21
173.1469724269805
 31
0.0
  0
LINE
  5
1B8
330
1F
100
AcDbEntity
  8
0
  6
Continuous
 62
     7
100
AcDbLine
 10
205.804184147854
 20
173.0684982881504
 30
0.0
 11
205.804184147854
 21
173.1469724269805
 31
0.0
  0
LINE
  5
1B9
330
1F
100
AcDbEntity
  8
0
  6
Continuous
 62
     7
100
AcDbLine
 10
205.804184147854
 20
175.868366580154
 30
0.0
 11
204.404184147854
 21
175.868366580154
 31
0.0
  0
LINE
  5
1BA
330
1F
100
AcDbEntity
  8
0
  6
Continuous
 62
     7
100
AcDbLine
 10
204.404184147854
 20
173.1469724269806
 30
0.0
 11
204.404184147854
 21
175.868366580154
 31
0.0
  0
LINE
  5
1BB
330
1F
100
AcDbEntity
  8
0
  6
Continuous
 62
     7
100
AcDbLine
 10
204.404184147854
 20
173.0684982881504
 30
0.0
 11
204.404184147854
 21
173.1469724269806
 31
0.0
  0
LINE
  5
1BC
330
1F
100
AcDbEntity
  8
0
  6
Continuous
 62
     2
100
AcDbLine
 10
203.154184147854
 20
149.3469724269806
 30
0.0
 11
203.154184147854
 21
152.8469724269806
 31
0.0
  0
LINE
  5
1BD
330
1F
100
AcDbEntity
  8
0
  6
Continuous
 62
     7
100
AcDbLine
 10
203.154184147854
 20
173.1469724269806
 30
0.0
 11
204.404184147854
 21
173.1469724269806
 31
0.0
  0
LINE
  5
1BE
330
1F
100
AcDbEntity
  8
0
  6
Continuous
 62
     2
100
AcDbLine
 10
203.154184147854
 20
159.8469724269806
 30
0.0
 11
203.154184147854
 21
160.8469724269806
 31
0.0
  0
LINE
  5
1BF
330
1F
100
AcDbEntity
  8
0
  6
Continuous
 62
     2
100
AcDbLine
 10
203.154184147854
 20
152.8469724269806
 30
0.0
 11
203.154184147854
 21
159.8469724269806
 31
0.0
  0
LINE
  5
1C0
330
1F
100
AcDbEntity
  8
0
  6
Continuous
 62
     7
100
AcDbLine
 10
346.654184147854
 20
149.3469724269806
 30
0.0
 11
203.154184147854
 21
149.3469724269806
 31
0.0
  0
LINE
  5
1C1
330
1F
100
AcDbEntity
  8
0
  6
Continuous
 62
     7
100
AcDbLine
 10
207.1541841478539
 20
169.2170892433812
 30
0.0
 11
207.1541841478539
 21
173.1469724269805
 31
0.0
  0
LINE
  5
1C2
330
1F
100
AcDbEntity
  8
0
  6
Continuous
 62
     7
100
AcDbLine
 10
200.154184147854
 20
172.7168454080584
 30
0.0
 11
200.154184147854
 21
177.0469724269806
 31
0.0
  0
LINE
  5
1C3
330
1F
100
AcDbEntity
  8
0
  6
Continuous
 62
     7
100
AcDbLine
 10
203.154184147854
 20
179.8864265998807
 30
0.0
 11
203.154184147854
 21
174.2075182540804
 31
0.0
  0
LINE
  5
1C4
330
1F
100
AcDbEntity
  8
0
  6
Continuous
 62
     7
100
AcDbLine
 10
203.154184147854
 20
174.2075182540804
 30
0.0
 11
200.5871968497463
 21
174.2075182540804
 31
0.0
  0
LINE
  5
1C5
330
1F
100
AcDbEntity
  8
0
  6
Continuous
 62
     7
100
AcDbLine
 10
200.5871968497463
 20
179.8864265998807
 30
0.0
 11
203.154184147854
 21
179.8864265998807
 31
0.0
  0
LINE
  5
1C6
330
1F
100
AcDbEntity
  8
0
  6
Continuous
 62
     7
100
AcDbLine
 10
203.154184147854
 20
173.1469724269806
 30
0.0
 11
203.154184147854
 21
171.2971183216083
 31
0.0
  0
LINE
  5
1C7
330
1F
100
AcDbEntity
  8
0
  6
Continuous
 62
     7
100
AcDbLine
 10
203.154184147854
 20
174.1365724945085
 30
0.0
 11
203.154184147854
 21
173.1469724269806
 31
0.0
  0
LINE
  5
1C8
330
1F
100
AcDbEntity
  8
0
  6
Continuous
 62
     7
100
AcDbLine
 10
200.5871968497463
 20
174.1365724945085
 30
0.0
 11
203.154184147854
 21
174.1365724945085
 31
0.0
  0
LINE
  5
1C9
330
1F
100
AcDbEntity
  8
0
  6
Continuous
 62
     7
100
AcDbLine
 10
200.5871968497463
 20
174.2075182540804
 30
0.0
 11
200.5871968497463
 21
174.1365724945085
 31
0.0
  0
LINE
  5
1CA
330
1F
100
AcDbEntity
  8
0
  6
Continuous
 62
     7
100
AcDbLine
 10
203.154184147854
 20
174.1365724945085
 30
0.0
 11
203.154184147854
 21
174.2075182540804
 31
0.0
  0
LINE
  5
1CB
330
1F
100
AcDbEntity
  8
0
  6
Continuous
 62
     7
100
AcDbLine
 10
203.154184147854
 20
171.2971183216083
 30
0.0
 11
200.5871968497463
 21
171.2971183216083
 31
0.0
  0
LINE
  5
1CC
330
1F
100
AcDbEntity
  8
0
  6
Continuous
 62
     7
100
AcDbLine
 10
200.154184147854
 20
172.0469724269806
 30
0.0
 11
200.154184147854
 21
172.7168454080584
 31
0.0
  0
LINE
  5
1CD
330
1F
100
AcDbEntity
  8
0
  6
Continuous
 62
     2
100
AcDbLine
 10
213.804184147854
 20
164.9278594925766
 30
0.0
 11
213.804184147854
 21
155.9278594925768
 31
0.0
  0
LINE
  5
1CE
330
1F
100
AcDbEntity
  8
0
  6
Continuous
 62
     7
100
AcDbLine
 10
203.154184147854
 20
180.9469724269805
 30
0.0
 11
204.404184147854
 21
180.9469724269805
 31
0.0
  0
LINE
  5
1CF
330
1F
100
AcDbEntity
  8
0
  6
Continuous
 62
     7
100
AcDbLine
 10
200.5871968497463
 20
179.9573723594527
 30
0.0
 11
200.5871968497463
 21
179.8864265998807
 31
0.0
  0
LINE
  5
1D0
330
1F
100
AcDbEntity
  8
0
  6
Continuous
 62
     7
100
AcDbLine
 10
203.154184147854
 20
179.9573723594527
 30
0.0
 11
200.5871968497463
 21
179.9573723594527
 31
0.0
  0
LINE
  5
1D1
330
1F
100
AcDbEntity
  8
0
  6
Continuous
 62
     7
100
AcDbLine
 10
203.154184147854
 20
180.9469724269805
 30
0.0
 11
203.154184147854
 21
179.9573723594527
 31
0.0
  0
LINE
  5
1D2
330
1F
100
AcDbEntity
  8
0
  6
Continuous
 62
     7
100
AcDbLine
 10
203.154184147854
 20
179.8864265998807
 30
0.0
 11
203.154184147854
 21
179.9573723594527
 31
0.0
  0
LINE
  5
1D3
330
1F
100
AcDbEntity
  8
0
  6
Continuous
 62
     7
100
AcDbLine
 10
205.804184147854
 20
180.9469724269805
 30
0.0
 11
207.1541841478539
 21
180.9469724269805
 31
0.0
  0
LINE
  5
1D4
330
1F
100
AcDbEntity
  8
0
  6
Continuous
 62
     7
100
AcDbLine
 10
207.1541841478539
 20
173.1469724269805
 30
0.0
 11
207.1541841478539
 21
180.9469724269805
 31
0.0
  0
LINE
  5
1D5
330
1F
100
AcDbEntity
  8
0
  6
Continuous
 62
     7
100
AcDbLine
 10
204.404184147854
 20
175.868366580154
 30
0.0
 11
204.404184147854
 21
180.9469724269805
 31
0.0
  0
LINE
  5
1D6
330
1F
100
AcDbEntity
  8
0
  6
Continuous
 62
     7
100
AcDbLine
 10
205.804184147854
 20
175.868366580154
 30
0.0
 11
205.804184147854
 21
180.9469724269805
 31
0.0
  0
LINE
  5
1D7
330
1F
100
AcDbEntity
  8
0
  6
Continuous
 62
     7
100
AcDbLine
 10
200.5871968497463
 20
182.7968265323528
 30
0.0
 11
203.154184147854
 21
182.7968265323528
 31
0.0
  0
LINE
  5
1D8
330
1F
100
AcDbEntity
  8
0
  6
Continuous
 62
     7
100
AcDbLine
 10
200.154184147854
 20
177.0469724269806
 30
0.0
 11
200.154184147854
 21
181.3770994459028
 31
0.0
  0
LINE
  5
1D9
330
1F
100
AcDbEntity
  8
0
  6
Continuous
 62
     7
100
AcDbLine
 10
200.154184147854
 20
181.3770994459028
 30
0.0
 11
200.154184147854
 21
182.0469724269805
 31
0.0
  0
LINE
  5
1DA
330
1F
100
AcDbEntity
  8
0
  6
Continuous
 62
     2
100
AcDbLine
 10
239.654184147854
 20
191.8469724269806
 30
0.0
 11
232.654184147854
 21
191.8469724269806
 31
0.0
  0
LINE
  5
1DB
330
1F
100
AcDbEntity
  8
0
  6
Continuous
 62
     7
100
AcDbLine
 10
239.654184147854
 20
189.5469724269806
 30
0.0
 11
239.654184147854
 21
191.8469724269806
 31
0.0
  0
LINE
  5
1DC
330
1F
100
AcDbEntity
  8
0
  6
Continuous
 62
     2
100
AcDbLine
 10
223.154184147854
 20
166.140295057875
 30
0.0
 11
223.1541841478539
 21
184.0469724269806
 31
0.0
  0
LINE
  5
1DD
330
1F
100
AcDbEntity
  8
0
  6
Continuous
 62
     7
100
AcDbLine
 10
207.1541841478539
 20
180.9469724269805
 30
0.0
 11
207.1541841478539
 21
184.0469724269806
 31
0.0
  0
LINE
  5
1DE
330
1F
100
AcDbEntity
  8
0
  6
Continuous
 62
     7
100
AcDbLine
 10
207.1541841478539
 20
184.0469724269806
 30
0.0
 11
223.1541841478539
 21
184.0469724269806
 31
0.0
  0
LINE
  5
1DF
330
1F
100
AcDbEntity
  8
0
  6
Continuous
 62
     7
100
AcDbLine
 10
232.654184147854
 20
189.5469724269806
 30
0.0
 11
232.654184147854
 21
191.8469724269806
 31
0.0
  0
LINE
  5
1E0
330
1F
100
AcDbEntity
  8
0
  6
Continuous
 62
     7
100
AcDbLine
 10
207.0541841478539
 20
189.5469724269806
 30
0.0
 11
207.0541841478539
 21
184.0469724269806
 31
0.0
  0
LINE
  5
1E1
330
1F
100
AcDbEntity
  8
0
  6
Continuous
 62
     2
100
AcDbLine
 10
223.1541841478539
 20
189.5469724269806
 30
0.0
 11
223.1541841478539
 21
184.0469724269806
 31
0.0
  0
LINE
  5
1E2
330
1F
100
AcDbEntity
  8
0
  6
Continuous
 62
     7
100
AcDbLine
 10
207.0541841478539
 20
184.0469724269806
 30
0.0
 11
207.1541841478539
 21
184.0469724269806
 31
0.0
  0
LINE
  5
1E3
330
1F
100
AcDbEntity
  8
0
  6
Continuous
 62
     7
100
AcDbLine
 10
207.0541841478539
 20
189.5469724269806
 30
0.0
 11
223.1541841478539
 21
189.5469724269806
 31
0.0
  0
LINE
  5
1E4
330
1F
100
AcDbEntity
  8
0
  6
Continuous
 62
     7
100
AcDbLine
 10
203.154184147854
 20
182.7968265323528
 30
0.0
 11
203.154184147854
 21
180.9469724269805
 31
0.0
  0
LINE
  5
1E5
330
1F
100
AcDbEntity
  8
0
  6
Continuous
 62
     7
100
AcDbLine
 10
239.654184147854
 20
191.8469724269806
 30
0.0
 11
239.654184147854
 21
195.8046965516403
 31
0.0
  0
LINE
  5
1E6
330
1F
100
AcDbEntity
  8
0
  6
Continuous
 62
     2
100
AcDbLine
 10
234.654184147854
 20
195.8046965516403
 30
0.0
 11
239.654184147854
 21
195.8046965516403
 31
0.0
  0
LINE
  5
1E7
330
1F
100
AcDbEntity
  8
0
  6
Continuous
 62
     7
100
AcDbLine
 10
239.654184147854
 20
195.9089241391743
 30
0.0
 11
234.9469868101516
 21
195.9089241391743
 31
0.0
  0
LINE
  5
1E8
330
1F
100
AcDbEntity
  8
0
  6
Continuous
 62
     7
100
AcDbLine
 10
232.654184147854
 20
191.8469724269806
 30
0.0
 11
232.654184147854
 21
196.1757173748313
 31
0.0
  0
LINE
  5
1E9
330
1F
100
AcDbEntity
  8
0
  6
Continuous
 62
     7
100
AcDbLine
 10
235.154184147854
 20
195.9089241391743
 30
0.0
 11
235.154184147854
 21
196.1757173748313
 31
0.0
  0
LINE
  5
1EA
330
1F
100
AcDbEntity
  8
0
  6
Continuous
 62
     7
100
AcDbLine
 10
239.654184147854
 20
195.8046965516403
 30
0.0
 11
239.654184147854
 21
195.9089241391743
 31
0.0
  0
LINE
  5
1EB
330
1F
100
AcDbEntity
  8
0
  6
Continuous
 62
     7
100
AcDbLine
 10
222.5228785893658
 20
196.1757173748313
 30
0.0
 11
232.654184147854
 21
196.1757173748313
 31
0.0
  0
LINE
  5
1EC
330
1F
100
AcDbEntity
  8
0
  6
Continuous
 62
     2
100
AcDbLine
 10
234.654184147854
 20
196.1757173748313
 30
0.0
 11
234.654184147854
 21
195.8046965516403
 31
0.0
  0
LINE
  5
1ED
330
1F
100
AcDbEntity
  8
0
  6
Continuous
 62
     7
100
AcDbLine
 10
239.654184147854
 20
192.0469724269806
 30
0.0
 11
239.904184147854
 21
192.0469724269806
 31
0.0
  0
LINE
  5
1EE
330
1F
100
AcDbEntity
  8
0
  6
Continuous
 62
     7
100
AcDbLine
 10
205.804184147854
 20
180.9469724269805
 30
0.0
 11
205.804184147854
 21
212.9459519125469
 31
0.0
  0
LINE
  5
1EF
330
1F
100
AcDbEntity
  8
0
  6
Continuous
 62
     7
100
AcDbLine
 10
204.404184147854
 20
180.9469724269805
 30
0.0
 11
204.404184147854
 21
212.9459519125469
 31
0.0
  0
LINE
  5
1F0
330
1F
100
AcDbEntity
  8
0
  6
Continuous
 62
     7
100
AcDbLine
 10
205.804184147854
 20
212.9459519125469
 30
0.0
 11
204.404184147854
 21
212.9459519125469
 31
0.0
  0
LINE
  5
1F1
330
1F
100
AcDbEntity
  8
0
  6
Continuous
 62
     7
100
AcDbLine
 10
239.904184147854
 20
190.5665748248969
 30
0.0
 11
239.904184147854
 21
192.0469724269806
 31
0.0
  0
LINE
  5
1F2
330
1F
100
AcDbEntity
  8
0
  6
Continuous
 62
     7
100
AcDbLine
 10
239.904184147854
 20
192.0469724269806
 30
0.0
 11
239.904184147854
 21
196.1757173748313
 31
0.0
  0
LINE
  5
1F3
330
1F
100
AcDbEntity
  8
0
  6
Continuous
 62
     7
100
AcDbLine
 10
213.9041841478539
 20
273.0570229333194
 30
0.0
 11
213.9041841478539
 21
212.0570229333195
 31
0.0
  0
LINE
  5
1F4
330
1F
100
AcDbEntity
  8
0
  6
Continuous
 62
     2
100
AcDbLine
 10
207.5228785893658
 20
244.5545213688633
 30
0.0
 11
201.904184147854
 21
244.5545213688633
 31
0.0
  0
LINE
  5
1F5
330
1F
100
AcDbEntity
  8
0
  6
Continuous
 62
     7
100
AcDbLine
 10
205.804184147854
 20
213.0469724269806
 30
0.0
 11
204.404184147854
 21
213.0469724269806
 31
0.0
  0
LINE
  5
1F6
330
1F
100
AcDbEntity
  8
0
  6
Continuous
 62
     7
100
AcDbLine
 10
207.5228785893658
 20
240.5595244977756
 30
0.0
 11
207.5228785893658
 21
238.0570229333194
 31
0.0
  0
LINE
  5
1F7
330
1F
100
AcDbEntity
  8
0
  6
Continuous
 62
     2
100
AcDbLine
 10
207.5228785893658
 20
240.5595244977756
 30
0.0
 11
201.904184147854
 21
240.5595244977756
 31
0.0
  0
LINE
  5
1F8
330
1F
100
AcDbEntity
  8
0
  6
Continuous
 62
     7
100
AcDbLine
 10
204.404184147854
 20
212.9459519125469
 30
0.0
 11
204.404184147854
 21
213.0469724269806
 31
0.0
  0
LINE
  5
1F9
330
1F
100
AcDbEntity
  8
0
  6
Continuous
 62
     7
100
AcDbLine
 10
201.904184147854
 20
238.0570229333194
 30
0.0
 11
201.904184147854
 21
240.5595244977756
 31
0.0
  0
LINE
  5
1FA
330
1F
100
AcDbEntity
  8
0
  6
Continuous
 62
     7
100
AcDbLine
 10
201.904184147854
 20
240.5595244977756
 30
0.0
 11
201.904184147854
 21
244.5545213688633
 31
0.0
  0
LINE
  5
1FB
330
1F
100
AcDbEntity
  8
0
  6
Continuous
 62
     7
100
AcDbLine
 10
207.5228785893658
 20
247.051394413293
 30
0.0
 11
201.904184147854
 21
247.051394413293
 31
0.0
  0
LINE
  5
1FC
330
1F
100
AcDbEntity
  8
0
  6
Continuous
 62
     7
100
AcDbLine
 10
201.904184147854
 20
244.5545213688633
 30
0.0
 11
201.904184147854
 21
247.051394413293
 31
0.0
  0
LINE
  5
1FD
330
1F
100
AcDbEntity
  8
0
  6
Continuous
 62
     7
100
AcDbLine
 10
207.5228785893658
 20
238.0570229333194
 30
0.0
 11
201.904184147854
 21
238.0570229333194
 31
0.0
  0
LINE
  5
1FE
330
1F
100
AcDbEntity
  8
0
  6
Continuous
 62
     7
100
AcDbLine
 10
205.804184147854
 20
212.9459519125469
 30
0.0
 11
205.804184147854
 21
213.0469724269806
 31
0.0
  0
LINE
  5
1FF
330
1F
100
AcDbEntity
  8
0
  6
Continuous
 62
     7
100
AcDbLine
 10
207.5228785893658
 20
244.5545213688633
 30
0.0
 11
207.5228785893658
 21
240.5595244977756
 31
0.0
  0
LINE
  5
200
330
1F
100
AcDbEntity
  8
0
  6
Continuous
 62
     7
100
AcDbLine
 10
207.5228785893658
 20
238.0570229333194
 30
0.0
 11
207.5228785893658
 21
211.1757173748313
 31
0.0
  0
LINE
  5
201
330
1F
100
AcDbEntity
  8
0
  6
Continuous
 62
     7
100
AcDbLine
 10
207.5228785893658
 20
273.9383284918076
 30
0.0
 11
207.5228785893658
 21
247.051394413293
 31
0.0
  0
LINE
  5
202
330
1F
100
AcDbEntity
  8
0
  6
Continuous
 62
     7
100
AcDbLine
 10
207.5228785893658
 20
247.051394413293
 30
0.0
 11
207.5228785893658
 21
244.5545213688633
 31
0.0
  0
LINE
  5
203
330
1F
100
AcDbEntity
  8
0
  6
Continuous
 62
     7
100
AcDbLine
 10
205.1715812801256
 20
160.8469724269806
 30
0.0
 11
203.154184147854
 21
160.8469724269806
 31
0.0
  0
LINE
  5
204
330
1F
100
AcDbEntity
  8
0
  6
Continuous
 62
     7
100
AcDbLine
 10
249.9038602420215
 20
164.4702950578749
 30
0.0
 11
249.9038602420215
 21
163.2578594925767
 31
0.0
  0
LINE
  5
205
330
1F
100
AcDbEntity
  8
0
  6
Continuous
 62
     7
100
AcDbLine
 10
241.9038602420215
 20
166.140295057875
 30
0.0
 11
213.804184147854
 21
166.1402950578748
 31
0.0
  0
LINE
  5
206
330
1F
100
AcDbEntity
  8
0
  6
Continuous
 62
     7
100
AcDbLine
 10
241.9038602420215
 20
164.9278594925767
 30
0.0
 11
213.804184147854
 21
164.9278594925766
 31
0.0
  0
LINE
  5
207
330
1F
100
AcDbEntity
  8
0
  6
Continuous
 62
     2
100
AcDbLine
 10
346.6541841478541
 20
159.8469724269806
 30
0.0
 11
357.654184147854
 21
159.8469724269806
 31
0.0
  0
LINE
  5
208
330
1F
100
AcDbEntity
  8
0
  6
Continuous
 62
     2
100
AcDbLine
 10
344.0415009901053
 20
159.8469724269806
 30
0.0
 11
346.6541841478541
 21
159.8469724269806
 31
0.0
  0
LINE
  5
209
330
1F
100
AcDbEntity
  8
0
  6
Continuous
 62
     7
100
AcDbLine
 10
203.154184147854
 20
160.8469724269806
 30
0.0
 11
193.154184147854
 21
160.8469724269806
 31
0.0
  0
LINE
  5
20A
330
1F
100
AcDbEntity
  8
0
  6
Continuous
 62
     7
100
AcDbLine
 10
356.6541841478541
 20
160.8469724269806
 30
0.0
 11
346.6541841478541
 21
160.8469724269806
 31
0.0
  0
LINE
  5
20B
330
1F
100
AcDbEntity
  8
0
  6
Continuous
 62
     7
100
AcDbLine
 10
192.154184147854
 20
152.8469724269806
 30
0.0
 11
192.154184147854
 21
159.8469724269806
 31
0.0
  0
LINE
  5
20C
330
1F
100
AcDbEntity
  8
0
  6
Continuous
 62
     7
100
AcDbLine
 10
346.654184147854
 20
152.8469724269806
 30
0.0
 11
203.154184147854
 21
152.8469724269806
 31
0.0
  0
LINE
  5
20D
330
1F
100
AcDbEntity
  8
0
  6
Continuous
 62
     7
100
AcDbLine
 10
203.154184147854
 20
152.8469724269806
 30
0.0
 11
192.154184147854
 21
152.8469724269806
 31
0.0
  0
LINE
  5
20E
330
1F
100
AcDbEntity
  8
0
  6
Continuous
 62
     7
100
AcDbLine
 10
222.9041841478539
 20
197.5570229333195
 30
0.0
 11
326.904184147854
 21
197.5570229333195
 31
0.0
  0
LINE
  5
20F
330
1F
100
AcDbEntity
  8
0
  6
Continuous
 62
     7
100
AcDbLine
 10
249.9038602420215
 20
169.2462008131838
 30
0.0
 11
299.9045080536865
 21
169.2462008131838
 31
0.0
  0
LINE
  5
210
330
1F
100
AcDbEntity
  8
0
  6
Continuous
 62
     7
100
AcDbLine
 10
299.9045080536865
 20
167.9896315325975
 30
0.0
 11
299.9045080536865
 21
169.2462008131838
 31
0.0
  0
LINE
  5
211
330
1F
100
AcDbEntity
  8
0
  6
Continuous
 62
     2
100
AcDbLine
 10
241.9038602420215
 20
166.140295057875
 30
0.0
 11
241.9038602420215
 21
164.9278594925767
 31
0.0
  0
LINE
  5
212
330
1F
100
AcDbEntity
  8
0
  6
Continuous
 62
     7
100
AcDbLine
 10
223.1541841478539
 20
184.0469724269806
 30
0.0
 11
326.654184147854
 21
184.0469724269806
 31
0.0
  0
LINE
  5
213
330
1F
100
AcDbEntity
  8
0
  6
Continuous
 62
     2
100
AcDbLine
 10
248.649124180828
 20
166.7771959672992
 30
0.0
 11
248.649124180828
 21
167.9896315325975
 31
0.0
  0
LINE
  5
214
330
1F
100
AcDbEntity
  8
0
  6
Continuous
 62
     2
100
AcDbLine
 10
249.9038602420215
 20
166.7771959672993
 30
0.0
 11
248.649124180828
 21
166.7771959672992
 31
0.0
  0
LINE
  5
215
330
1F
100
AcDbEntity
  8
0
  6
Continuous
 62
     2
100
AcDbLine
 10
299.9045080536865
 20
167.9896315325975
 30
0.0
 11
249.9038602420215
 21
167.9896315325974
 31
0.0
  0
LINE
  5
216
330
1F
100
AcDbEntity
  8
0
  6
Continuous
 62
     7
100
AcDbLine
 10
249.9038602420215
 20
169.2462008131838
 30
0.0
 11
249.9038602420215
 21
167.9896315325974
 31
0.0
  0
LINE
  5
217
330
1F
100
AcDbEntity
  8
0
  6
Continuous
 62
     7
100
AcDbLine
 10
249.9038602420215
 20
164.4702950578749
 30
0.0
 11
249.9038602420215
 21
167.846616631628
 31
0.0
  0
LINE
  5
218
330
1F
100
AcDbEntity
  8
0
  6
Continuous
 62
     7
100
AcDbLine
 10
249.9038602420215
 20
167.846616631628
 30
0.0
 11
249.9038602420215
 21
167.9896315325974
 31
0.0
  0
LINE
  5
219
330
1F
100
AcDbEntity
  8
0
  6
Continuous
 62
     7
100
AcDbLine
 10
239.654184147854
 20
189.5469724269806
 30
0.0
 11
310.154184147854
 21
189.5469724269806
 31
0.0
  0
LINE
  5
21A
330
1F
100
AcDbEntity
  8
0
  6
Continuous
 62
     7
100
AcDbLine
 10
223.1541841478539
 20
189.5469724269806
 30
0.0
 11
239.654184147854
 21
189.5469724269806
 31
0.0
  0
LINE
  5
21B
330
1F
100
AcDbEntity
  8
0
  6
Continuous
 62
     7
100
AcDbLine
 10
317.154184147854
 20
196.1757173748314
 30
0.0
 11
327.2854897063421
 21
196.1757173748314
 31
0.0
  0
LINE
  5
21C
330
1F
100
AcDbEntity
  8
0
  6
Continuous
 62
     7
100
AcDbLine
 10
315.154184147854
 20
196.1757173748313
 30
0.0
 11
317.154184147854
 21
196.1757173748314
 31
0.0
  0
LINE
  5
21D
330
1F
100
AcDbEntity
  8
0
  6
Continuous
 62
     7
100
AcDbLine
 10
314.654184147854
 20
196.1757173748314
 30
0.0
 11
315.154184147854
 21
196.1757173748313
 31
0.0
  0
LINE
  5
21E
330
1F
100
AcDbEntity
  8
0
  6
Continuous
 62
     7
100
AcDbLine
 10
239.904184147854
 20
196.1757173748313
 30
0.0
 11
309.904184147854
 21
196.1757173748313
 31
0.0
  0
LINE
  5
21F
330
1F
100
AcDbEntity
  8
0
  6
Continuous
 62
     7
100
AcDbLine
 10
309.904184147854
 20
196.1757173748313
 30
0.0
 11
314.654184147854
 21
196.1757173748314
 31
0.0
  0
LINE
  5
220
330
1F
100
AcDbEntity
  8
0
  6
Continuous
 62
     7
100
AcDbLine
 10
235.154184147854
 20
196.1757173748313
 30
0.0
 11
239.904184147854
 21
196.1757173748313
 31
0.0
  0
LINE
  5
221
330
1F
100
AcDbEntity
  8
0
  6
Continuous
 62
     7
100
AcDbLine
 10
232.654184147854
 20
196.1757173748313
 30
0.0
 11
234.654184147854
 21
196.1757173748313
 31
0.0
  0
LINE
  5
222
330
1F
100
AcDbEntity
  8
0
  6
Continuous
 62
     7
100
AcDbLine
 10
234.654184147854
 20
196.1757173748313
 30
0.0
 11
235.154184147854
 21
196.1757173748313
 31
0.0
  0
LINE
  5
223
330
1F
100
AcDbEntity
  8
0
  6
Continuous
 62
     7
100
AcDbLine
 10
314.8613814855564
 20
195.9089241391743
 30
0.0
 11
310.154184147854
 21
195.9089241391743
 31
0.0
  0
LINE
  5
224
330
1F
100
AcDbEntity
  8
0
  6
Continuous
 62
     7
100
AcDbLine
 10
314.654184147854
 20
196.1757173748314
 30
0.0
 11
314.654184147854
 21
195.9089241391743
 31
0.0
  0
LINE
  5
225
330
1F
100
AcDbEntity
  8
0
  6
Continuous
 62
     7
100
AcDbLine
 10
310.154184147854
 20
195.9089241391743
 30
0.0
 11
310.154184147854
 21
195.8046965516403
 31
0.0
  0
LINE
  5
226
330
1F
100
AcDbEntity
  8
0
  6
Continuous
 62
     7
100
AcDbLine
 10
223.404184147854
 20
202.5570229333195
 30
0.0
 11
326.404184147854
 21
202.5570229333195
 31
0.0
  0
LINE
  5
227
330
1F
100
AcDbEntity
  8
0
  6
Continuous
 62
     7
100
AcDbLine
 10
326.404184147854
 20
282.5570229333195
 30
0.0
 11
223.404184147854
 21
282.5570229333195
 31
0.0
  0
LINE
  5
228
330
1F
100
AcDbEntity
  8
0
  6
Continuous
 62
     7
100
AcDbLine
 10
326.9041841478539
 20
287.5570229333195
 30
0.0
 11
222.9041841478541
 21
287.5570229333195
 31
0.0
  0
LINE
  5
229
330
1F
100
AcDbEntity
  8
0
  6
Continuous
 62
     7
100
AcDbLine
 10
256.9041841478539
 20
288.9383284918076
 30
0.0
 11
222.5228785893658
 21
288.9383284918076
 31
0.0
  0
LINE
  5
22A
330
1F
100
AcDbEntity
  8
0
  6
Continuous
 62
     7
100
AcDbLine
 10
327.2854897063421
 20
288.9383284918076
 30
0.0
 11
292.904184147854
 21
288.9383284918076
 31
0.0
  0
LINE
  5
22B
330
1F
100
AcDbEntity
  8
0
  6
Continuous
 62
     7
100
AcDbLine
 10
292.904184147854
 20
288.9383284918076
 30
0.0
 11
256.9041841478539
 21
288.9383284918076
 31
0.0
  0
LINE
  5
22C
330
1F
100
AcDbEntity
  8
0
  6
Continuous
 62
     2
100
AcDbLine
 10
239.904184147854
 20
190.5665748248969
 30
0.0
 11
309.904184147854
 21
190.5665748248969
 31
0.0
  0
LINE
  5
22D
330
1F
100
AcDbEntity
  8
0
  6
Continuous
 62
     7
100
AcDbLine
 10
307.9045080536865
 20
166.140295057875
 30
0.0
 11
336.004184147854
 21
166.1402950578749
 31
0.0
  0
LINE
  5
22E
330
1F
100
AcDbEntity
  8
0
  6
Continuous
 62
     2
100
AcDbLine
 10
307.9045080536865
 20
166.140295057875
 30
0.0
 11
307.9045080536865
 21
164.9278594925767
 31
0.0
  0
LINE
  5
22F
330
1F
100
AcDbEntity
  8
0
  6
Continuous
 62
     7
100
AcDbLine
 10
307.9045080536865
 20
164.9278594925767
 30
0.0
 11
336.004184147854
 21
164.9278594925766
 31
0.0
  0
LINE
  5
230
330
1F
100
AcDbEntity
  8
0
  6
Continuous
 62
     2
100
AcDbLine
 10
301.1592441148799
 20
167.9896315325975
 30
0.0
 11
301.1592441148799
 21
166.7771959672993
 31
0.0
  0
LINE
  5
231
330
1F
100
AcDbEntity
  8
0
  6
Continuous
 62
     2
100
AcDbLine
 10
301.1592441148799
 20
166.7771959672993
 30
0.0
 11
299.9045080536865
 21
166.7771959672993
 31
0.0
  0
LINE
  5
232
330
1F
100
AcDbEntity
  8
0
  6
Continuous
 62
     7
100
AcDbLine
 10
299.9045080536865
 20
164.4702950578749
 30
0.0
 11
299.9045080536865
 21
167.8466166316281
 31
0.0
  0
LINE
  5
233
330
1F
100
AcDbEntity
  8
0
  6
Continuous
 62
     7
100
AcDbLine
 10
299.9045080536865
 20
167.8466166316281
 30
0.0
 11
299.9045080536865
 21
167.9896315325975
 31
0.0
  0
LINE
  5
234
330
1F
100
AcDbEntity
  8
0
  6
Continuous
 62
     7
100
AcDbLine
 10
299.9045080536865
 20
164.4702950578749
 30
0.0
 11
299.9045080536865
 21
163.2578594925767
 31
0.0
  0
LINE
  5
235
330
1F
100
AcDbEntity
  8
0
  6
Continuous
 62
     7
100
AcDbLine
 10
239.904184147854
 20
190.5665748248969
 30
0.0
 11
239.904184147854
 21
189.5469724269806
 31
0.0
  0
LINE
  5
236
330
1F
100
AcDbEntity
  8
0
  6
Continuous
 62
     7
100
AcDbLine
 10
256.9041841478539
 20
292.5570229333195
 30
0.0
 11
292.904184147854
 21
292.5570229333195
 31
0.0
  0
LINE
  5
237
330
1F
100
AcDbEntity
  8
0
  6
Continuous
 62
     2
100
AcDbLine
 10
310.154184147854
 20
195.8046965516403
 30
0.0
 11
315.154184147854
 21
195.8046965516403
 31
0.0
  0
LINE
  5
238
330
1F
100
AcDbEntity
  8
0
  6
Continuous
 62
     7
100
AcDbLine
 10
346.654184147854
 20
174.2075182540804
 30
0.0
 11
346.654184147854
 21
179.8864265998807
 31
0.0
  0
LINE
  5
239
330
1F
100
AcDbEntity
  8
0
  6
Continuous
 62
     7
100
AcDbLine
 10
349.2211714459618
 20
179.9573723594527
 30
0.0
 11
346.654184147854
 21
179.9573723594527
 31
0.0
  0
LINE
  5
23A
330
1F
100
AcDbEntity
  8
0
  6
Continuous
 62
     7
100
AcDbLine
 10
346.654184147854
 20
179.8864265998807
 30
0.0
 11
346.654184147854
 21
179.9573723594527
 31
0.0
  0
LINE
  5
23B
330
1F
100
AcDbEntity
  8
0
  6
Continuous
 62
     7
100
AcDbLine
 10
346.654184147854
 20
179.8864265998807
 30
0.0
 11
349.2211714459618
 21
179.8864265998807
 31
0.0
  0
LINE
  5
23C
330
1F
100
AcDbEntity
  8
0
  6
Continuous
 62
     7
100
AcDbLine
 10
349.2211714459618
 20
174.1365724945085
 30
0.0
 11
349.2211714459618
 21
174.2075182540804
 31
0.0
  0
LINE
  5
23D
330
1F
100
AcDbEntity
  8
0
  6
Continuous
 62
     7
100
AcDbLine
 10
349.2211714459618
 20
179.8864265998807
 30
0.0
 11
349.2211714459618
 21
179.9573723594527
 31
0.0
  0
LINE
  5
23E
330
1F
100
AcDbEntity
  8
0
  6
Continuous
 62
     7
100
AcDbLine
 10
349.2211714459618
 20
171.2969724269806
 30
0.0
 11
346.654184147854
 21
171.2969724269806
 31
0.0
  0
LINE
  5
23F
330
1F
100
AcDbEntity
  8
0
  6
Continuous
 62
     7
100
AcDbLine
 10
349.2211714459618
 20
174.2075182540804
 30
0.0
 11
346.654184147854
 21
174.2075182540804
 31
0.0
  0
LINE
  5
240
330
1F
100
AcDbEntity
  8
0
  6
Continuous
 62
     7
100
AcDbLine
 10
346.654184147854
 20
174.1365724945085
 30
0.0
 11
349.2211714459618
 21
174.1365724945085
 31
0.0
  0
LINE
  5
241
330
1F
100
AcDbEntity
  8
0
  6
Continuous
 62
     7
100
AcDbLine
 10
346.654184147854
 20
174.1365724945085
 30
0.0
 11
346.654184147854
 21
174.2075182540804
 31
0.0
  0
LINE
  5
242
330
1F
100
AcDbEntity
  8
0
  6
Continuous
 62
     7
100
AcDbLine
 10
346.654184147854
 20
173.1469724269806
 30
0.0
 11
346.654184147854
 21
174.1365724945085
 31
0.0
  0
LINE
  5
243
330
1F
100
AcDbEntity
  8
0
  6
Continuous
 62
     7
100
AcDbLine
 10
349.654184147854
 20
181.3770994459028
 30
0.0
 11
349.654184147854
 21
177.0469724269806
 31
0.0
  0
LINE
  5
244
330
1F
100
AcDbEntity
  8
0
  6
Continuous
 62
     7
100
AcDbLine
 10
349.6541841483027
 20
182.0469724272396
 30
0.0
 11
349.654184147854
 21
181.3770994459028
 31
0.0
  0
LINE
  5
245
330
1F
100
AcDbEntity
  8
0
  6
Continuous
 62
     7
100
AcDbLine
 10
349.654184147854
 20
172.7168454080584
 30
0.0
 11
349.6541841483027
 21
172.0469724267215
 31
0.0
  0
LINE
  5
246
330
1F
100
AcDbEntity
  8
0
  6
Continuous
 62
     7
100
AcDbLine
 10
349.654184147854
 20
177.0469724269806
 30
0.0
 11
349.654184147854
 21
172.7168454080584
 31
0.0
  0
LINE
  5
247
330
1F
100
AcDbEntity
  8
0
  6
Continuous
 62
     7
100
AcDbLine
 10
346.654184147854
 20
180.9469724269806
 30
0.0
 11
346.654184147854
 21
182.7968265323528
 31
0.0
  0
LINE
  5
248
330
1F
100
AcDbEntity
  8
0
  6
Continuous
 62
     7
100
AcDbLine
 10
349.6541841483027
 20
172.0469724267215
 30
0.0
 11
349.2211714459618
 21
171.2969724269806
 31
0.0
  0
LINE
  5
249
330
1F
100
AcDbEntity
  8
0
  6
Continuous
 62
     7
100
AcDbLine
 10
349.6541841483027
 20
182.0469724272396
 30
0.0
 11
349.2211714459618
 21
182.7969724269806
 31
0.0
  0
LINE
  5
24A
330
1F
100
AcDbEntity
  8
0
  6
Continuous
 62
     7
100
AcDbLine
 10
310.154184147854
 20
189.5469724269806
 30
0.0
 11
326.654184147854
 21
189.5469724269806
 31
0.0
  0
LINE
  5
24B
330
1F
100
AcDbEntity
  8
0
  6
Continuous
 62
     2
100
AcDbLine
 10
310.154184147854
 20
191.8469724269806
 30
0.0
 11
317.154184147854
 21
191.8469724269806
 31
0.0
  0
LINE
  5
24C
330
1F
100
AcDbEntity
  8
0
  6
Continuous
 62
     7
100
AcDbLine
 10
326.654184147854
 20
189.5469724269806
 30
0.0
 11
342.7541841478541
 21
189.5469724269806
 31
0.0
  0
LINE
  5
24D
330
1F
100
AcDbEntity
  8
0
  6
Continuous
 62
     2
100
AcDbLine
 10
326.654184147854
 20
189.5469724269806
 30
0.0
 11
326.654184147854
 21
184.0469724269806
 31
0.0
  0
LINE
  5
24E
330
1F
100
AcDbEntity
  8
0
  6
Continuous
 62
     7
100
AcDbLine
 10
342.7541841478541
 20
189.5469724269806
 30
0.0
 11
342.7541841478541
 21
184.0469724269806
 31
0.0
  0
LINE
  5
24F
330
1F
100
AcDbEntity
  8
0
  6
Continuous
 62
     7
100
AcDbLine
 10
326.654184147854
 20
184.0469724269806
 30
0.0
 11
342.6541841478541
 21
184.0469724269806
 31
0.0
  0
LINE
  5
250
330
1F
100
AcDbEntity
  8
0
  6
Continuous
 62
     7
100
AcDbLine
 10
342.6541841478541
 20
184.0469724269806
 30
0.0
 11
342.7541841478541
 21
184.0469724269806
 31
0.0
  0
LINE
  5
251
330
1F
100
AcDbEntity
  8
0
  6
Continuous
 62
     7
100
AcDbLine
 10
317.154184147854
 20
189.5469724269806
 30
0.0
 11
317.154184147854
 21
191.8469724269806
 31
0.0
  0
LINE
  5
252
330
1F
100
AcDbEntity
  8
0
  6
Continuous
 62
     2
100
AcDbLine
 10
326.654184147854
 20
166.140295057875
 30
0.0
 11
326.654184147854
 21
184.0469724269806
 31
0.0
  0
LINE
  5
253
330
1F
100
AcDbEntity
  8
0
  6
Continuous
 62
     7
100
AcDbLine
 10
310.154184147854
 20
191.8469724269806
 30
0.0
 11
310.154184147854
 21
189.5469724269806
 31
0.0
  0
LINE
  5
254
330
1F
100
AcDbEntity
  8
0
  6
Continuous
 62
     7
100
AcDbLine
 10
310.154184147854
 20
195.8046965516403
 30
0.0
 11
310.154184147854
 21
191.8469724269806
 31
0.0
  0
LINE
  5
255
330
1F
100
AcDbEntity
  8
0
  6
Continuous
 62
     2
100
AcDbLine
 10
315.154184147854
 20
195.8046965516403
 30
0.0
 11
315.154184147854
 21
196.1757173748313
 31
0.0
  0
LINE
  5
256
330
1F
100
AcDbEntity
  8
0
  6
Continuous
 62
     7
100
AcDbLine
 10
317.154184147854
 20
191.8469724269806
 30
0.0
 11
317.154184147854
 21
196.1757173748314
 31
0.0
  0
LINE
  5
257
330
1F
100
AcDbEntity
  8
0
  6
Continuous
 62
     7
100
AcDbLine
 10
344.004184147854
 20
180.9469724269806
 30
0.0
 11
344.004184147854
 21
212.9459519125469
 31
0.0
  0
LINE
  5
258
330
1F
100
AcDbEntity
  8
0
  6
Continuous
 62
     7
100
AcDbLine
 10
345.404184147854
 20
180.9469724269806
 30
0.0
 11
345.404184147854
 21
212.9459519125469
 31
0.0
  0
LINE
  5
259
330
1F
100
AcDbEntity
  8
0
  6
Continuous
 62
     7
100
AcDbLine
 10
344.004184147854
 20
212.9459519125469
 30
0.0
 11
345.404184147854
 21
212.9459519125469
 31
0.0
  0
LINE
  5
25A
330
1F
100
AcDbEntity
  8
0
  6
Continuous
 62
     7
100
AcDbLine
 10
309.904184147854
 20
192.0469724269806
 30
0.0
 11
310.154184147854
 21
192.0469724269806
 31
0.0
  0
LINE
  5
25B
330
1F
100
AcDbEntity
  8
0
  6
Continuous
 62
     7
100
AcDbLine
 10
309.904184147854
 20
190.5665748248969
 30
0.0
 11
309.904184147854
 21
189.5469724269806
 31
0.0
  0
LINE
  5
25C
330
1F
100
AcDbEntity
  8
0
  6
Continuous
 62
     7
100
AcDbLine
 10
309.904184147854
 20
192.0469724269806
 30
0.0
 11
309.904184147854
 21
196.1757173748313
 31
0.0
  0
LINE
  5
25D
330
1F
100
AcDbEntity
  8
0
  6
Continuous
 62
     7
100
AcDbLine
 10
309.904184147854
 20
190.5665748248969
 30
0.0
 11
309.904184147854
 21
192.0469724269806
 31
0.0
  0
LINE
  5
25E
330
1F
100
AcDbEntity
  8
0
  6
Continuous
 62
     7
100
AcDbLine
 10
340.904184147854
 20
211.5570229333195
 30
0.0
 11
340.9041841478539
 21
273.5570229333195
 31
0.0
  0
LINE
  5
25F
330
1F
100
AcDbEntity
  8
0
  6
Continuous
 62
     7
100
AcDbLine
 10
342.2854897063421
 20
211.1757173748314
 30
0.0
 11
342.2854897063421
 21
238.0570229333196
 31
0.0
  0
LINE
  5
260
330
1F
100
AcDbEntity
  8
0
  6
Continuous
 62
     7
100
AcDbLine
 10
342.2854897063421
 20
247.0570229333196
 30
0.0
 11
342.2854897063421
 21
273.9383284918076
 31
0.0
  0
LINE
  5
261
330
1F
100
AcDbEntity
  8
0
  6
Continuous
 62
     7
100
AcDbLine
 10
342.2854897063421
 20
246.229896467761
 30
0.0
 11
342.2854897063421
 21
247.0570229333196
 31
0.0
  0
LINE
  5
262
330
1F
100
AcDbEntity
  8
0
  6
Continuous
 62
     7
100
AcDbLine
 10
342.2854897063421
 20
238.8841493988781
 30
0.0
 11
342.2854897063421
 21
246.229896467761
 31
0.0
  0
LINE
  5
263
330
1F
100
AcDbEntity
  8
0
  6
Continuous
 62
     7
100
AcDbLine
 10
342.2854897063421
 20
238.0570229333196
 30
0.0
 11
342.2854897063421
 21
238.8841493988781
 31
0.0
  0
LINE
  5
264
330
1F
100
AcDbEntity
  8
0
  6
Continuous
 62
     7
100
AcDbLine
 10
335.904184147854
 20
212.0570229333194
 30
0.0
 11
335.9041841478539
 21
273.0570229333196
 31
0.0
  0
LINE
  5
265
330
1F
100
AcDbEntity
  8
0
  6
Continuous
 62
     7
100
AcDbLine
 10
342.2854897063421
 20
246.229896467761
 30
0.0
 11
347.9041841478539
 21
246.229896467761
 31
0.0
  0
LINE
  5
266
330
1F
100
AcDbEntity
  8
0
  6
Continuous
 62
     7
100
AcDbLine
 10
344.004184147854
 20
212.9459519125469
 30
0.0
 11
344.004184147854
 21
213.0469724269806
 31
0.0
  0
LINE
  5
267
330
1F
100
AcDbEntity
  8
0
  6
Continuous
 62
     7
100
AcDbLine
 10
344.004184147854
 20
213.0469724269806
 30
0.0
 11
345.404184147854
 21
213.0469724269806
 31
0.0
  0
LINE
  5
268
330
1F
100
AcDbEntity
  8
0
  6
Continuous
 62
     7
100
AcDbLine
 10
345.404184147854
 20
212.9459519125469
 30
0.0
 11
345.404184147854
 21
213.0469724269806
 31
0.0
  0
LINE
  5
269
330
1F
100
AcDbEntity
  8
0
  6
Continuous
 62
     7
100
AcDbLine
 10
342.2854897063421
 20
247.0570229333196
 30
0.0
 11
347.9041841478539
 21
247.0570229333196
 31
0.0
  0
LINE
  5
26A
330
1F
100
AcDbEntity
  8
0
  6
Continuous
 62
     7
100
AcDbLine
 10
342.2854897063421
 20
238.0570229333196
 30
0.0
 11
347.9041841478539
 21
238.0570229333196
 31
0.0
  0
LINE
  5
26B
330
1F
100
AcDbEntity
  8
0
  6
Continuous
 62
     7
100
AcDbLine
 10
342.2854897063421
 20
238.8841493988781
 30
0.0
 11
347.9041841478539
 21
238.8841493988781
 31
0.0
  0
LINE
  5
26C
330
1F
100
AcDbEntity
  8
0
  6
Continuous
 62
     7
100
AcDbLine
 10
347.9041841478539
 20
238.8841493988781
 30
0.0
 11
347.9041841478539
 21
238.0570229333196
 31
0.0
  0
LINE
  5
26D
330
1F
100
AcDbEntity
  8
0
  6
Continuous
 62
     7
100
AcDbLine
 10
347.9041841478539
 20
246.229896467761
 30
0.0
 11
347.9041841478539
 21
238.8841493988781
 31
0.0
  0
LINE
  5
26E
330
1F
100
AcDbEntity
  8
0
  6
Continuous
 62
     7
100
AcDbLine
 10
347.9041841478539
 20
247.0570229333196
 30
0.0
 11
347.9041841478539
 21
246.229896467761
 31
0.0
  0
LINE
  5
26F
330
1F
100
AcDbEntity
  8
0
  6
Continuous
 62
     7
100
AcDbLine
 10
256.9041841478539
 20
292.5570229333195
 30
0.0
 11
256.9041841478539
 21
288.9383284918076
 31
0.0
  0
LINE
  5
270
330
1F
100
AcDbEntity
  8
0
  6
Continuous
 62
     7
100
AcDbLine
 10
292.904184147854
 20
292.5570229333195
 30
0.0
 11
292.904184147854
 21
288.9383284918076
 31
0.0
  0
LINE
  5
271
330
1F
100
AcDbEntity
  8
1
  6
DOT_CENTER
 62
     2
100
AcDbLine
 10
200.904184147854
 20
163.8469724269806
 30
0.0
 11
200.904184147854
 21
146.3469724269806
 31
0.0
  0
LINE
  5
272
330
1F
100
AcDbEntity
  8
1
  6
DOT_CENTER
 62
     2
100
AcDbLine
 10
348.904184147854
 20
163.8469724269806
 30
0.0
 11
348.904184147854
 21
146.3469724269806
 31
0.0
  0
LINE
  5
273
330
1F
100
AcDbEntity
  8
1
  6
DOT_CENTER
 62
     2
100
AcDbLine
 10
416.0541841468941
 20
163.8469724269806
 30
0.0
 11
416.0541841468941
 21
146.3469724269806
 31
0.0
  0
LINE
  5
274
330
1F
100
AcDbEntity
  8
1
  6
DOT_CENTER
 62
     2
100
AcDbLine
 10
486.0541841468941
 20
163.8469724269806
 30
0.0
 11
486.0541841468941
 21
146.3469724269806
 31
0.0
  0
ARC
  5
275
330
1F
100
AcDbEntity
  8
1
  6
DASHED
 62
     7
100
AcDbCircle
 10
451.0541841468941
 20
177.0469724269806
 30
0.0
 40
94.00259450639841
100
AcDbArc
 50
350.4618221486563
 51
0.0
  0
ARC
  5
276
330
1F
100
AcDbEntity
  8
1
  6
DASHED
 62
     7
100
AcDbCircle
 10
451.0541841468941
 20
177.0469724269806
 30
0.0
 40
94.00259450639841
100
AcDbArc
 50
336.9534892038483
 51
350.4618221486563
  0
ARC
  5
277
330
1F
100
AcDbEntity
  8
Sichtbare_Kanten_TC_020513_DIN_
  6
Continuous
 62
     7
100
AcDbCircle
 10
277.9041841478539
 20
174.0511537275653
 30
0.0
 40
0.375
100
AcDbArc
 50
180.0
 51
299.9816393687677
  0
ARC
  5
278
330
1F
100
AcDbEntity
  8
Sichtbare_Kanten_TC_020513_DIN_
  6
Continuous
 62
     7
100
AcDbCircle
 10
280.1541841478539
 20
175.3492306506422
 30
0.0
 40
0.3749999999994585
100
AcDbArc
 50
299.9816393687742
 51
119.9816393689311
  0
ARC
  5
279
330
1F
100
AcDbEntity
  8
Sichtbare_Kanten_TC_020513_DIN_
  6
Continuous
 62
     7
100
AcDbCircle
 10
280.1541841478539
 20
176.6465866200822
 30
0.0
 40
0.375
100
AcDbArc
 50
270.0
 51
90.0
  0
ARC
  5
27A
330
1F
100
AcDbEntity
  8
Sichtbare_Kanten_TC_020513_DIN_
  6
Continuous
 62
     7
100
AcDbCircle
 10
280.1541841478539
 20
177.9439425895223
 30
0.0
 40
0.3750000000001573
100
AcDbArc
 50
240.0183606310668
 51
60.01836063121925
  0
ARC
  5
27B
330
1F
100
AcDbEntity
  8
Sichtbare_Kanten_TC_020513_DIN_
  6
Continuous
 62
     7
100
AcDbCircle
 10
277.9041841478539
 20
179.2420195125992
 30
0.0
 40
0.3749999999995324
100
AcDbArc
 50
60.01836063123227
 51
180.0
  0
ARC
  5
27C
330
1F
100
AcDbEntity
  8
Sichtbare_Kanten_TC_020513_DIN_
  6
Continuous
 62
     7
100
AcDbCircle
 10
270.3291841478537
 20
178.3333656664452
 30
0.0
 40
0.375
100
AcDbArc
 50
0.0
 51
180.0
  0
ARC
  5
27D
330
1F
100
AcDbEntity
  8
Sichtbare_Kanten_TC_020513_DIN_
  6
Continuous
 62
     7
100
AcDbCircle
 10
270.3291841478537
 20
174.9598075737192
 30
0.0
 40
0.375
100
AcDbArc
 50
180.0
 51
0.0
  0
ARC
  5
27E
330
1F
100
AcDbEntity
  8
Sichtbare_Kanten_TC_020513_DIN_
  6
Continuous
 62
     7
100
AcDbCircle
 10
271.8291841478537
 20
174.0944229583343
 30
0.0
 40
0.375
100
AcDbArc
 50
180.0
 51
240.0183606310968
  0
ARC
  5
27F
330
1F
100
AcDbEntity
  8
Sichtbare_Kanten_TC_020513_DIN_
  6
Continuous
 62
     7
100
AcDbCircle
 10
274.9041841478539
 20
172.3203844967963
 30
0.0
 40
0.3750000000001573
100
AcDbArc
 50
240.0183606310668
 51
60.01836063121925
  0
ARC
  5
280
330
1F
100
AcDbEntity
  8
Sichtbare_Kanten_TC_020513_DIN_
  6
Continuous
 62
     7
100
AcDbCircle
 10
271.8291841478537
 20
179.1987502818302
 30
0.0
 40
0.375
100
AcDbArc
 50
0.0
 51
180.0
  0
ARC
  5
281
330
1F
100
AcDbEntity
  8
Sichtbare_Kanten_TC_020513_DIN_
  6
Continuous
 62
     7
100
AcDbCircle
 10
276.4041841478539
 20
173.1857691121812
 30
0.0
 40
0.375
100
AcDbArc
 50
180.0
 51
0.0
  0
ARC
  5
282
330
1F
100
AcDbEntity
  8
Sichtbare_Kanten_TC_020513_DIN_
  6
Continuous
 62
     7
100
AcDbCircle
 10
276.4041841478539
 20
180.1074041279842
 30
0.0
 40
0.375
100
AcDbArc
 50
0.0
 51
144.0904238230468
  0
ARC
  5
283
330
1F
100
AcDbEntity
  8
Sichtbare_Kanten_TC_020513_DIN_
  6
Continuous
 62
     7
100
AcDbCircle
 10
273.4041841478539
 20
180.1074041279842
 30
0.0
 40
0.37499999999924
100
AcDbArc
 50
35.90957617705512
 51
180.0
  0
ARC
  5
284
330
1F
100
AcDbEntity
  8
Sichtbare_Kanten_TC_020513_DIN_
  6
Continuous
 62
     7
100
AcDbCircle
 10
273.4041841478539
 20
174.9598075737192
 30
0.0
 40
0.375
100
AcDbArc
 50
180.0
 51
0.0
  0
ARC
  5
285
330
1F
100
AcDbEntity
  8
0
  6
Continuous
 62
     7
100
AcDbCircle
 10
388.4541841468942
 20
242.5570229333194
 30
0.0
 40
4.500000000000013
100
AcDbArc
 50
87.1340160174023
 51
272.8659839825978
  0
ARC
  5
286
330
1F
100
AcDbEntity
  8
0
  6
Continuous
 62
     7
100
AcDbCircle
 10
380.5541841468941
 20
281.6634688218542
 30
0.0
 40
3.5
100
AcDbArc
 50
90.0
 51
180.0
  0
ARC
  5
287
330
1F
100
AcDbEntity
  8
0
  6
Continuous
 62
     7
100
AcDbCircle
 10
388.5541841468941
 20
244.5545213688633
 30
0.0
 40
2.5
100
AcDbArc
 50
0.0
 51
87.13401601740104
  0
ARC
  5
288
330
1F
100
AcDbEntity
  8
0
  6
Continuous
 62
     7
100
AcDbCircle
 10
388.5541841468941
 20
240.5595244977756
 30
0.0
 40
2.499999999999947
100
AcDbArc
 50
272.8659839825989
 51
0.0
  0
ARC
  5
289
330
1F
100
AcDbEntity
  8
0
  6
Continuous
 62
     7
100
AcDbCircle
 10
399.4716179620799
 20
188.8580380021436
 30
0.0
 40
2.99999999999996
100
AcDbArc
 50
346.5265370497295
 51
30.5872373297926
  0
ARC
  5
28A
330
1F
100
AcDbEntity
  8
0
  6
Continuous
 62
     7
100
AcDbCircle
 10
396.5541841468941
 20
189.5570229333195
 30
0.0
 40
6.000000000000019
100
AcDbArc
 50
336.4435356908983
 51
346.5265370497287
  0
ARC
  5
28B
330
1F
100
AcDbEntity
  8
0
  6
Continuous
 62
     7
100
AcDbCircle
 10
406.5541841468941
 20
159.8469724269806
 30
0.0
 40
1.0
100
AcDbArc
 50
90.0
 51
180.0
  0
ARC
  5
28C
330
1F
100
AcDbEntity
  8
0
  6
Continuous
 62
     7
100
AcDbCircle
 10
397.0541841468941
 20
191.8469724269806
 30
0.0
 40
5.0
100
AcDbArc
 50
0.0
 51
59.96834041284004
  0
ARC
  5
28D
330
1F
100
AcDbEntity
  8
0
  6
Continuous
 62
     7
100
AcDbCircle
 10
397.0541841468941
 20
191.8469724269806
 30
0.0
 40
4.999999999999837
100
AcDbArc
 50
120.0316595871577
 51
180.0
  0
ARC
  5
28E
330
1F
100
AcDbEntity
  8
0
  6
Continuous
 62
     7
100
AcDbCircle
 10
396.5541841468941
 20
189.5570229333195
 30
0.0
 40
5.999999999999952
100
AcDbArc
 50
214.8173972808327
 51
221.4096221092709
  0
ARC
  5
28F
330
1F
100
AcDbEntity
  8
0
  6
Continuous
 62
     7
100
AcDbCircle
 10
527.7654089953518
 20
159.8489927370237
 30
0.0
 40
9.399999999999883
100
AcDbArc
 50
60.00000000000087
 51
91.39648487671165
  0
ARC
  5
290
330
1F
100
AcDbEntity
  8
0
  6
Continuous
 62
     7
100
AcDbCircle
 10
527.7654089953518
 20
159.8489927370237
 30
0.0
 40
7.999999999999983
100
AcDbArc
 50
91.39648487671218
 51
119.9999999999997
  0
ARC
  5
291
330
1F
100
AcDbEntity
  8
0
  6
Continuous
 62
     7
100
AcDbCircle
 10
425.0541841468941
 20
159.8469724269806
 30
0.0
 40
1.0
100
AcDbArc
 50
0.0
 51
90.0
  0
ARC
  5
292
330
1F
100
AcDbEntity
  8
0
  6
Continuous
 62
     7
100
AcDbCircle
 10
527.7654089953518
 20
159.8489927370237
 30
0.0
 40
9.400000000000038
100
AcDbArc
 50
91.39648487671165
 51
120.0
  0
ARC
  5
293
330
1F
100
AcDbEntity
  8
0
  6
Continuous
 62
     7
100
AcDbCircle
 10
527.7654089953518
 20
159.8489927370237
 30
0.0
 40
7.999999999999992
100
AcDbArc
 50
59.99999999999996
 51
91.39648487671218
  0
ARC
  5
294
330
1F
100
AcDbEntity
  8
0
  6
Continuous
 62
     7
100
AcDbCircle
 10
477.0541841468941
 20
159.8469724269806
 30
0.0
 40
1.0
100
AcDbArc
 50
90.0
 51
180.0
  0
ARC
  5
295
330
1F
100
AcDbEntity
  8
0
  6
Continuous
 62
     7
100
AcDbCircle
 10
495.5541841468941
 20
159.8469724269806
 30
0.0
 40
1.0
100
AcDbArc
 50
0.0
 51
90.0
  0
ARC
  5
296
330
1F
100
AcDbEntity
  8
0
  6
Continuous
 62
     7
100
AcDbCircle
 10
447.0541841468941
 20
189.0469724269806
 30
0.0
 40
10.00000000000003
100
AcDbArc
 50
44.26711799688926
 51
126.869897645844
  0
ARC
  5
297
330
1F
100
AcDbEntity
  8
0
  6
Continuous
 62
     7
100
AcDbCircle
 10
427.0541841468941
 20
159.3469724269806
 30
0.0
 40
1.0
100
AcDbArc
 50
180.0
 51
270.0
  0
ARC
  5
298
330
1F
100
AcDbEntity
  8
0
  6
Continuous
 62
     7
100
AcDbCircle
 10
451.0541841468941
 20
177.0469724269806
 30
0.0
 40
5.000000000000016
100
AcDbArc
 50
240.0000000000001
 51
299.9999999999998
  0
ARC
  5
299
330
1F
100
AcDbEntity
  8
0
  6
Continuous
 62
     7
100
AcDbCircle
 10
468.5541841468941
 20
187.0469724269806
 30
0.0
 40
4.000000000000006
100
AcDbArc
 50
228.5903778907291
 51
311.409622109271
  0
ARC
  5
29A
330
1F
100
AcDbEntity
  8
0
  6
Continuous
 62
     7
100
AcDbCircle
 10
451.0541841468941
 20
177.0469724269806
 30
0.0
 40
4.999999999999992
100
AcDbArc
 50
59.99999999999994
 51
120.0000000000001
  0
ARC
  5
29B
330
1F
100
AcDbEntity
  8
0
  6
Continuous
 62
     7
100
AcDbCircle
 10
456.5614072405347
 20
190.9194778309258
 30
0.0
 40
13.50000000000002
100
AcDbArc
 50
1.80856150113498
 51
67.79089334888556
  0
ARC
  5
29C
330
1F
100
AcDbEntity
  8
0
  6
Continuous
 62
     7
100
AcDbCircle
 10
451.0541841468941
 20
177.0469724269806
 30
0.0
 40
5.000000000000016
100
AcDbArc
 50
299.9999999999998
 51
0.0
  0
ARC
  5
29D
330
1F
100
AcDbEntity
  8
0
  6
Continuous
 62
     7
100
AcDbCircle
 10
451.0541841468941
 20
177.0469724269806
 30
0.0
 40
5.0
100
AcDbArc
 50
0.0
 51
59.99999999999994
  0
ARC
  5
29E
330
1F
100
AcDbEntity
  8
0
  6
Continuous
 62
     7
100
AcDbCircle
 10
475.0541841468941
 20
159.3469724269806
 30
0.0
 40
1.0
100
AcDbArc
 50
270.0
 51
0.0
  0
ARC
  5
29F
330
1F
100
AcDbEntity
  8
0
  6
Continuous
 62
     7
100
AcDbCircle
 10
468.5541841468941
 20
187.0469724269806
 30
0.0
 40
3.999999999999936
100
AcDbArc
 50
224.2671179968904
 51
228.5903778907291
  0
ARC
  5
2A0
330
1F
100
AcDbEntity
  8
0
  6
Continuous
 62
     7
100
AcDbCircle
 10
468.5541841468941
 20
187.0469724269806
 30
0.0
 40
4.000000000000006
100
AcDbArc
 50
311.409622109271
 51
38.68218745348846
  0
ARC
  5
2A1
330
1F
100
AcDbEntity
  8
0
  6
Continuous
 62
     7
100
AcDbCircle
 10
463.5541841468941
 20
208.0469724269806
 30
0.0
 40
4.999999999999932
100
AcDbArc
 50
78.46304096718436
 51
247.7908933488867
  0
ARC
  5
2A2
330
1F
100
AcDbEntity
  8
0
  6
Continuous
 62
     7
100
AcDbCircle
 10
471.0541841468941
 20
191.3770994459028
 30
0.0
 40
0.999999999999907
100
AcDbArc
 50
181.8085615011391
 51
240.0000000000011
  0
ARC
  5
2A3
330
1F
100
AcDbEntity
  8
0
  6
Continuous
 62
     7
100
AcDbCircle
 10
468.5541841468941
 20
187.0469724269806
 30
0.0
 40
4.000000000000085
100
AcDbArc
 50
38.68218745348846
 51
59.99999999999967
  0
ARC
  5
2A4
330
1F
100
AcDbEntity
  8
0
  6
Continuous
 62
     7
100
AcDbCircle
 10
380.5541841468941
 20
203.4566112295201
 30
0.0
 40
3.5
100
AcDbArc
 50
180.0
 51
270.0
  0
ARC
  5
2A5
330
1F
100
AcDbEntity
  8
0
  6
Continuous
 62
     7
100
AcDbCircle
 10
446.0541841468941
 20
172.0469724269806
 30
0.0
 40
5.0
100
AcDbArc
 50
180.0
 51
270.0
  0
ARC
  5
2A6
330
1F
100
AcDbEntity
  8
0
  6
Continuous
 62
     7
100
AcDbCircle
 10
451.0541841468941
 20
177.0469724269806
 30
0.0
 40
5.0
100
AcDbArc
 50
180.0
 51
240.0000000000001
  0
ARC
  5
2A7
330
1F
100
AcDbEntity
  8
0
  6
Continuous
 62
     7
100
AcDbCircle
 10
451.0541841468941
 20
177.0469724269806
 30
0.0
 40
4.999999999999992
100
AcDbArc
 50
120.0000000000001
 51
180.0
  0
ARC
  5
2A8
330
1F
100
AcDbEntity
  8
0
  6
Continuous
 62
     7
100
AcDbCircle
 10
451.0541841468962
 20
177.0469724269841
 30
0.0
 40
5.749999999999981
100
AcDbArc
 50
149.5918457939913
 51
150.4081542060902
  0
ARC
  5
2A9
330
1F
100
AcDbEntity
  8
0
  6
Continuous
 62
     7
100
AcDbCircle
 10
451.0541841468941
 20
177.0469724269806
 30
0.0
 40
5.750000000000031
100
AcDbArc
 50
269.5918457939512
 51
270.4081542060499
  0
ARC
  5
2AA
330
1F
100
AcDbEntity
  8
0
  6
Continuous
 62
     7
100
AcDbCircle
 10
451.0541841468941
 20
177.0469724269806
 30
0.0
 40
5.749999999999947
100
AcDbArc
 50
89.59184579395013
 51
90.40815420604875
  0
ARC
  5
2AB
330
1F
100
AcDbEntity
  8
0
  6
Continuous
 62
     7
100
AcDbCircle
 10
451.054184146896
 20
177.0469724269772
 30
0.0
 40
5.749999999999931
100
AcDbArc
 50
209.5918457939117
 51
210.4081542060113
  0
ARC
  5
2AC
330
1F
100
AcDbEntity
  8
0
  6
Continuous
 62
     7
100
AcDbCircle
 10
451.0541841468934
 20
177.0469724269817
 30
0.0
 40
5.750000000000072
100
AcDbArc
 50
29.59184579393824
 51
30.40815420603527
  0
ARC
  5
2AD
330
1F
100
AcDbEntity
  8
0
  6
Continuous
 62
     7
100
AcDbCircle
 10
451.0541841468962
 20
177.0469724269841
 30
0.0
 40
5.74999999999999
100
AcDbArc
 50
329.5918457939105
 51
330.4081542060082
  0
ARC
  5
2AE
330
1F
100
AcDbEntity
  8
0
  6
Continuous
 62
     7
100
AcDbCircle
 10
327.2854897063421
 20
273.9383284918076
 30
0.0
 40
15.0
100
AcDbArc
 50
0.0
 51
90.0
  0
ARC
  5
2AF
330
1F
100
AcDbEntity
  8
0
  6
Continuous
 62
     7
100
AcDbCircle
 10
327.2854897063421
 20
211.1757173748314
 30
0.0
 40
15.0
100
AcDbArc
 50
270.0
 51
0.0
  0
ARC
  5
2B0
330
1F
100
AcDbEntity
  8
0
  6
Continuous
 62
     7
100
AcDbCircle
 10
222.5228785893658
 20
273.9383284918076
 30
0.0
 40
15.0
100
AcDbArc
 50
90.0
 51
180.0
  0
ARC
  5
2B1
330
1F
100
AcDbEntity
  8
0
  6
Continuous
 62
     7
100
AcDbCircle
 10
222.5228785893658
 20
211.1757173748313
 30
0.0
 40
15.0
100
AcDbArc
 50
180.0
 51
270.0
  0
ARC
  5
2B2
330
1F
100
AcDbEntity
  8
0
  6
Continuous
 62
     7
100
AcDbCircle
 10
223.404184147854
 20
212.0570229333195
 30
0.0
 40
9.500000000000114
100
AcDbArc
 50
180.0
 51
270.0
  0
ARC
  5
2B3
330
1F
100
AcDbEntity
  8
0
  6
Continuous
 62
     7
100
AcDbCircle
 10
222.9041841478539
 20
211.5570229333194
 30
0.0
 40
13.99999999999989
100
AcDbArc
 50
180.0
 51
270.0
  0
ARC
  5
2B4
330
1F
100
AcDbEntity
  8
0
  6
Continuous
 62
     7
100
AcDbCircle
 10
222.9041841478541
 20
273.5570229333193
 30
0.0
 40
14.00000000000023
100
AcDbArc
 50
90.0
 51
180.0
  0
ARC
  5
2B5
330
1F
100
AcDbEntity
  8
0
  6
Continuous
 62
     7
100
AcDbCircle
 10
223.404184147854
 20
273.0570229333194
 30
0.0
 40
9.500000000000114
100
AcDbArc
 50
90.0
 51
180.0
  0
ARC
  5
2B6
330
1F
100
AcDbEntity
  8
0
  6
Continuous
 62
     7
100
AcDbCircle
 10
193.154184147854
 20
159.8469724269806
 30
0.0
 40
1.0
100
AcDbArc
 50
90.0
 51
180.0
  0
ARC
  5
2B7
330
1F
100
AcDbEntity
  8
0
  6
Continuous
 62
     7
100
AcDbCircle
 10
356.6541841478541
 20
159.8469724269806
 30
0.0
 40
0.9999999999998863
100
AcDbArc
 50
0.0
 51
90.0
  0
ARC
  5
2B8
330
1F
100
AcDbEntity
  8
0
  6
Continuous
 62
     7
100
AcDbCircle
 10
326.9041841478539
 20
273.5570229333195
 30
0.0
 40
14.0
100
AcDbArc
 50
0.0
 51
90.0
  0
ARC
  5
2B9
330
1F
100
AcDbEntity
  8
0
  6
Continuous
 62
     7
100
AcDbCircle
 10
326.904184147854
 20
211.5570229333195
 30
0.0
 40
14.0
100
AcDbArc
 50
270.0
 51
0.0
  0
ARC
  5
2BA
330
1F
100
AcDbEntity
  8
0
  6
Continuous
 62
     7
100
AcDbCircle
 10
326.404184147854
 20
212.0570229333194
 30
0.0
 40
9.499999999999886
100
AcDbArc
 50
270.0
 51
0.0
  0
ARC
  5
2BB
330
1F
100
AcDbEntity
  8
0
  6
Continuous
 62
     7
100
AcDbCircle
 10
326.404184147854
 20
273.0570229333196
 30
0.0
 40
9.499999999999943
100
AcDbArc
 50
0.0
 51
90.0
  0
CIRCLE
  5
2BC
330
1F
100
AcDbEntity
  8
1
  6
Continuous
 62
     7
100
AcDbCircle
 10
134.4914653233801
 20
186.8347746807536
 30
0.0
 40
3.25
  0
CIRCLE
  5
2BD
330
1F
100
AcDbEntity
  8
1
  6
Continuous
 62
     7
100
AcDbCircle
 10
64.49146532338014
 20
186.8347746807536
 30
0.0
 40
3.25
  0
CIRCLE
  5
2BE
330
1F
100
AcDbEntity
  8
1
  6
Continuous
 62
     7
100
AcDbCircle
 10
64.49146532338014
 20
334.8347746807536
 30
0.0
 40
3.25
  0
CIRCLE
  5
2BF
330
1F
100
AcDbEntity
  8
1
  6
Continuous
 62
     7
100
AcDbCircle
 10
134.4914653233801
 20
334.8347746807536
 30
0.0
 40
3.25
  0
SPLINE
  5
2C0
330
1F
100
AcDbEntity
  8
0
  6
Continuous
 62
     2
100
AcDbSpline
210
0.0
220
0.0
230
1.0
 70
     8
 71
     3
 72
    11
 73
     7
 74
     5
 42
0.000000001
 43
0.0000000001
 44
0.00000001
 40
0.0
 40
0.0
 40
0.0
 40
0.0
 40
0.7629622494103899
 40
1.504444904127705
 40
2.178393156016773
 40
2.798715151260215
 40
2.798715151260215
 40
2.798715151260215
 40
2.798715151260215
 10
479.0541841468941
 20
157.3469724269806
 30
0.0
 10
478.8692948150342
 20
157.5216359230315
 30
0.0
 10
478.5047213347324
 20
157.8660456471661
 30
0.0
 10
477.9683329663164
 20
158.3551218024115
 30
0.0
 10
477.4585906109494
 20
158.8045726438206
 30
0.0
 10
477.1031976737911
 20
159.0497989999806
 30
0.0
 10
476.9328638033337
 20
159.1673318692305
 30
0.0
 11
479.0541841468941
 21
157.3469724269806
 31
0.0
 11
478.4980070249718
 21
157.8692543398664
 31
0.0
 11
477.9500865506814
 21
158.3688338459065
 31
0.0
 11
477.4366721690809
 21
158.80542510066
 31
0.0
 11
476.9328638033337
 21
159.1673318692305
 31
0.0
  0
SPLINE
  5
2C1
330
1F
100
AcDbEntity
  8
0
  6
Continuous
 62
     2
100
AcDbSpline
210
0.0
220
0.0
230
1.0
 70
     8
 71
     3
 72
    11
 73
     7
 74
     5
 42
0.000000001
 43
0.0000000001
 44
0.00000001
 40
0.0
 40
0.0
 40
0.0
 40
0.0
 40
0.8352824179623324
 40
1.653353944062685
 40
1.930156722874961
 40
2.2008711977839
 40
2.2008711977839
 40
2.2008711977839
 40
2.2008711977839
 10
479.0541841468941
 20
157.3469724269806
 30
0.0
 10
478.7917056468261
 20
157.4398532491649
 30
0.0
 10
478.2721569848512
 20
157.623701097903
 30
0.0
 10
477.6634496058065
 20
157.8321647810536
 30
0.0
 10
477.2306938982468
 20
157.9733660798511
 30
0.0
 10
477.0563601882665
 20
158.0273750269864
 30
0.0
 10
476.9701626125789
 20
158.0540792083495
 30
0.0
 11
479.0541841468941
 21
157.3469724269806
 31
0.0
 11
478.2662728265692
 21
157.6242673103817
 31
0.0
 11
477.4918139714237
 21
157.8878095638275
 31
0.0
 11
477.2285535907234
 21
157.9733300322804
 31
0.0
 11
476.9701626125789
 21
158.0540792083495
 31
0.0
  0
SPLINE
  5
2C2
330
1F
100
AcDbEntity
  8
0
  6
Continuous
 62
     2
100
AcDbSpline
210
0.0
220
0.0
230
1.0
 70
     8
 71
     3
 72
    11
 73
     7
 74
     5
 42
0.000000001
 43
0.0000000001
 44
0.00000001
 40
0.0
 40
0.0
 40
0.0
 40
0.0
 40
0.3540633572172945
 40
0.732008713782027
 40
1.144210052076079
 40
1.546077722520762
 40
1.546077722520762
 40
1.546077722520762
 40
1.546077722520762
 10
405.5541841468941
 20
161.8469724269806
 30
0.0
 10
405.568584506794
 20
161.7281550205697
 30
0.0
 10
405.5983565625535
 20
161.4825058339298
 30
0.0
 10
405.823774441926
 20
161.1611485642851
 30
0.0
 10
406.1471808580125
 20
160.9084433111361
 30
0.0
 10
406.4196693585298
 20
160.8672885797444
 30
0.0
 10
406.5541841468941
 20
160.8469724269806
 30
0.0
 11
405.5541841468941
 21
161.8469724269806
 31
0.0
 11
405.6241586537768
 21
161.4998925647237
 31
0.0
 11
405.8304583200941
 21
161.1832174263615
 31
0.0
 11
406.1632199046211
 21
160.9399486977881
 31
0.0
 11
406.5541841468941
 21
160.8469724269806
 31
0.0
  0
SPLINE
  5
2C3
330
1F
100
AcDbEntity
  8
0
  6
Continuous
 62
     2
100
AcDbSpline
210
0.0
220
0.0
230
1.0
 70
     8
 71
     3
 72
    11
 73
     7
 74
     5
 42
0.000000001
 43
0.0000000001
 44
0.00000001
 40
0.0
 40
0.0
 40
0.0
 40
0.0
 40
0.4018651543415253
 40
0.8140637329360814
 40
1.176765679659304
 40
1.546068208471916
 40
1.546068208471916
 40
1.546068208471916
 40
1.546068208471916
 10
495.5541841468941
 20
160.8469724269806
 30
0.0
 10
495.6887021602209
 20
160.8672734663804
 30
0.0
 10
495.9611971337309
 20
160.9083975733743
 30
0.0
 10
496.2804067016474
 20
161.1580897915589
 30
0.0
 10
496.5076707321382
 20
161.4771721393328
 30
0.0
 10
496.5385867553575
 20
161.7229668753705
 30
0.0
 10
496.5541841468942
 20
161.8469724269806
 30
0.0
 11
495.5541841468941
 21
160.8469724269806
 31
0.0
 11
495.9451460655919
 21
160.9399475936112
 31
0.0
 11
496.2779062872818
 21
161.1832135104293
 31
0.0
 11
496.4782544531152
 21
161.4855598636855
 31
0.0
 11
496.5541841468942
 21
161.8469724269806
 31
0.0
  0
SPLINE
  5
2C4
330
1F
100
AcDbEntity
  8
0
  6
Continuous
 62
     2
100
AcDbSpline
210
0.0
220
0.0
230
1.0
 70
     8
 71
     3
 72
     9
 73
     5
 74
     3
 42
0.000000001
 43
0.0000000001
 44
0.00000001
 40
0.0
 40
0.0
 40
0.0
 40
0.0
 40
0.6787640361060404
 40
1.429899625168815
 40
1.429899625168815
 40
1.429899625168815
 40
1.429899625168815
 10
426.5182857620378
 20
158.3469724269806
 30
0.0
 10
426.2839059026197
 20
158.4172899566962
 30
0.0
 10
425.7901560154669
 20
158.5654224649114
 30
0.0
 10
425.6997507994436
 20
159.0778112533475
 30
0.0
 10
425.6522603582519
 20
159.3469724269806
 30
0.0
 11
426.5182857620378
 21
158.3469724269806
 31
0.0
 11
425.9060334156524
 21
158.6400043129867
 31
0.0
 11
425.6522603582519
 21
159.3469724269806
 31
0.0
  0
SPLINE
  5
2C5
330
1F
100
AcDbEntity
  8
0
  6
Continuous
 62
     2
100
AcDbSpline
210
0.0
220
0.0
230
1.0
 70
     8
 71
     3
 72
    11
 73
     7
 74
     5
 42
0.000000001
 43
0.0000000001
 44
0.00000001
 40
0.0
 40
0.0
 40
0.0
 40
0.0
 40
0.1697398837829711
 40
0.3761626935661167
 40
0.4438322266178336
 40
0.5142527600503739
 40
0.5142527600503739
 40
0.5142527600503739
 40
0.5142527600503739
 10
425.6522603582519
 20
159.3469724269806
 30
0.0
 10
425.59581077502
 20
159.3397875039552
 30
0.0
 10
425.4707121462865
 20
159.3238648889651
 30
0.0
 10
425.3360795783221
 20
159.2575223629217
 30
0.0
 10
425.235200831819
 20
159.2029883875478
 30
0.0
 10
425.195665804539
 20
159.1793741918478
 30
0.0
 10
425.175504490466
 20
159.1673318692444
 30
0.0
 11
425.6522603582519
 21
159.3469724269806
 31
0.0
 11
425.4851499852672
 21
159.3172108457609
 31
0.0
 11
425.2956262949796
 21
159.2354114070857
 31
0.0
 11
425.2362224625741
 21
159.203002295959
 31
0.0
 11
425.175504490466
 21
159.1673318692444
 31
0.0
  0
SPLINE
  5
2C6
330
1F
100
AcDbEntity
  8
0
  6
Continuous
 62
     2
100
AcDbSpline
210
0.0
220
0.0
230
1.0
 70
     8
 71
     3
 72
    11
 73
     7
 74
     5
 42
0.000000001
 43
0.0000000001
 44
0.00000001
 40
0.0
 40
0.0
 40
0.0
 40
0.0
 40
0.3813321505188218
 40
0.783816374888026
 40
1.161963024621474
 40
1.414648888181584
 40
1.414648888181584
 40
1.414648888181584
 40
1.414648888181584
 10
476.9701626125789
 20
158.0540792083495
 30
0.0
 10
476.8483664253788
 20
158.0905518421194
 30
0.0
 10
476.5980181493006
 20
158.1655202010051
 30
0.0
 10
476.222733334996
 20
158.2606588780285
 30
0.0
 10
475.8844837302755
 20
158.3312808573332
 30
0.0
 10
475.6742811442008
 20
158.3424846499038
 30
0.0
 10
475.5900825317564
 20
158.3469724269806
 30
0.0
 11
476.9701626125789
 21
158.0540792083495
 31
0.0
 11
476.6041102206374
 21
158.1609428997929
 31
0.0
 11
476.2139663308788
 21
158.2598433539015
 31
0.0
 11
475.842084133619
 21
158.3283891349187
 31
0.0
 11
475.5900825317564
 21
158.3469724269806
 31
0.0
  0
SPLINE
  5
2C7
330
1F
100
AcDbEntity
  8
0
  6
Continuous
 62
     2
100
AcDbSpline
210
0.0
220
0.0
230
1.0
 70
     8
 71
     3
 72
    11
 73
     7
 74
     5
 42
0.000000001
 43
0.0000000001
 44
0.00000001
 40
0.0
 40
0.0
 40
0.0
 40
0.0
 40
0.2661599662152038
 40
0.6307988212211082
 40
0.9203136037076793
 40
1.414650904241687
 40
1.414650904241687
 40
1.414650904241687
 40
1.414650904241687
 10
426.5182857620378
 20
158.3469724269806
 30
0.0
 10
426.42960205677
 20
158.3420679381553
 30
0.0
 10
426.2194217760822
 20
158.3304442887079
 30
0.0
 10
425.9182757811654
 20
158.2672018367388
 30
0.0
 10
425.5466192873072
 20
158.1759635428118
 30
0.0
 10
425.296158861005
 20
158.1012177446804
 30
0.0
 10
425.1382056800191
 20
158.0540792081679
 30
0.0
 11
426.5182857620378
 21
158.3469724269806
 31
0.0
 11
426.2529057674485
 21
158.3266110282402
 31
0.0
 11
425.894428749989
 21
158.2598598072949
 31
0.0
 11
425.6133368910052
 21
158.1905332013712
 31
0.0
 11
425.1382056800191
 21
158.0540792081679
 31
0.0
  0
SPLINE
  5
2C8
330
1F
100
AcDbEntity
  8
0
  6
Continuous
 62
     2
100
AcDbSpline
210
0.0
220
0.0
230
1.0
 70
     8
 71
     3
 72
     9
 73
     5
 74
     3
 42
0.000000001
 43
0.0000000001
 44
0.00000001
 40
0.0
 40
0.0
 40
0.0
 40
0.0
 40
0.6787640361045395
 40
1.429899625166272
 40
1.429899625166272
 40
1.429899625166272
 40
1.429899625166272
 10
475.5900825317564
 20
158.3469724269806
 30
0.0
 10
475.8244623911734
 20
158.4172899566969
 30
0.0
 10
476.3182122783246
 20
158.5654224649138
 30
0.0
 10
476.4086174943486
 20
159.0778112533482
 30
0.0
 10
476.4561079355408
 20
159.3469724269806
 30
0.0
 11
475.5900825317564
 21
158.3469724269806
 31
0.0
 11
476.2023348781395
 21
158.6400043129881
 31
0.0
 11
476.4561079355408
 21
159.3469724269806
 31
0.0
  0
SPLINE
  5
2C9
330
1F
100
AcDbEntity
  8
0
  6
Continuous
 62
     2
100
AcDbSpline
210
0.0
220
0.0
230
1.0
 70
     8
 71
     3
 72
    11
 73
     7
 74
     5
 42
0.000000001
 43
0.0000000001
 44
0.00000001
 40
0.0
 40
0.0
 40
0.0
 40
0.0
 40
0.1499454867679863
 40
0.2855380108476434
 40
0.4076752772018596
 40
0.5147492938825112
 40
0.5147492938825112
 40
0.5147492938825112
 40
0.5147492938825112
 10
476.9328638033337
 20
159.1673318692305
 30
0.0
 10
476.8897108713608
 20
159.1926384426967
 30
0.0
 10
476.8075356514641
 20
159.2408292017884
 30
0.0
 10
476.6839524821876
 20
159.297366054734
 30
0.0
 10
476.5682208820307
 20
159.337732942235
 30
0.0
 10
476.4918049574511
 20
159.3440305585413
 30
0.0
 10
476.4561079355408
 20
159.3469724269806
 30
0.0
 11
476.9328638033337
 21
159.1673318692305
 31
0.0
 11
476.8021962991999
 21
159.2408822021484
 31
0.0
 11
476.6788676540757
 21
159.2972326987939
 31
0.0
 11
476.5623915506308
 21
159.3339863369434
 31
0.0
 11
476.4561079355408
 21
159.3469724269806
 31
0.0
  0
SPLINE
  5
2CA
330
1F
100
AcDbEntity
  8
0
  6
Continuous
 62
     2
100
AcDbSpline
210
0.0
220
0.0
230
1.0
 70
     8
 71
     3
 72
    11
 73
     7
 74
     5
 42
0.000000001
 43
0.0000000001
 44
0.00000001
 40
0.0
 40
0.0
 40
0.0
 40
0.0
 40
0.5718048351683671
 40
1.29433620883569
 40
2.022466494592282
 40
2.798740356083115
 40
2.798740356083115
 40
2.798740356083115
 40
2.798740356083115
 10
425.175504490466
 20
159.1673318692444
 30
0.0
 10
425.0182106403718
 20
159.0594247189352
 30
0.0
 10
424.6621606243549
 20
158.8151663107442
 30
0.0
 10
424.1552476271477
 20
158.3689861636957
 30
0.0
 10
423.6070343945387
 20
157.8689106318129
 30
0.0
 10
423.2423576660987
 20
157.5246244115891
 30
0.0
 10
423.0541841468941
 20
157.3469724269806
 30
0.0
 11
425.175504490466
 21
159.1673318692444
 31
0.0
 11
424.7097972352618
 21
158.835552540938
 31
0.0
 11
424.1582585380089
 21
158.36880136414
 31
0.0
 11
423.6202138898389
 21
157.8782081868218
 31
0.0
 11
423.0541841468941
 21
157.3469724269806
 31
0.0
  0
SPLINE
  5
2CB
330
1F
100
AcDbEntity
  8
0
  6
Continuous
 62
     2
100
AcDbSpline
210
0.0
220
0.0
230
1.0
 70
     8
 71
     3
 72
    11
 73
     7
 74
     5
 42
0.000000001
 43
0.0000000001
 44
0.00000001
 40
0.0
 40
0.0
 40
0.0
 40
0.0
 40
0.5205094978543793
 40
1.077711232376035
 40
1.638272298348515
 40
2.200867728785859
 40
2.200867728785859
 40
2.200867728785859
 40
2.200867728785859
 10
425.1382056800191
 20
158.0540792081679
 30
0.0
 10
424.9726653339623
 20
158.0021014918516
 30
0.0
 10
424.6299152234044
 20
157.8944819834083
 30
0.0
 10
424.112888200042
 20
157.7185891709252
 30
0.0
 10
423.5839500310875
 20
157.5343261240781
 30
0.0
 10
423.2309858803512
 20
157.4094990301845
 30
0.0
 10
423.0541841468941
 20
157.3469724269806
 30
0.0
 11
425.1382056800191
 21
158.0540792081679
 31
0.0
 11
424.6421986361272
 21
157.8962592160827
 31
0.0
 11
424.1141749833649
 21
157.7183131699184
 31
0.0
 11
423.5847348022114
 21
157.5341344425613
 31
0.0
 11
423.0541841468941
 21
157.3469724269806
 31
0.0
  0
SPLINE
  5
2CC
330
1F
100
AcDbEntity
  8
0
  6
Continuous
 62
     7
100
AcDbSpline
210
0.0
220
0.0
230
1.0
 70
     8
 71
     3
 72
    11
 73
     7
 74
     5
 42
0.000000001
 43
0.0000000001
 44
0.00000001
 40
0.0
 40
0.0
 40
0.0
 40
0.0
 40
2.307422523030322
 40
4.359725711932455
 40
5.984186492413007
 40
7.219752182549048
 40
7.219752182549048
 40
7.219752182549048
 40
7.219752182549048
 10
293.9045080536865
 20
160.2578594925767
 30
0.0
 10
294.6784197349305
 20
160.2985784122037
 30
0.0
 10
296.1406758313526
 20
160.3755141853133
 30
0.0
 10
298.0221306022575
 20
161.0015774617095
 30
0.0
 10
299.5258625106698
 20
161.9022990740851
 30
0.0
 10
299.7902775821229
 20
162.8489115586005
 30
0.0
 10
299.9045080536865
 20
163.2578594925767
 30
0.0
 11
293.9045080536865
 21
160.2578594925767
 31
0.0
 11
296.2006016665948
 21
160.4862293221959
 31
0.0
 11
298.1471487408057
 21
161.1365391490171
 31
0.0
 11
299.447768394448
 21
162.1098126861225
 31
0.0
 11
299.9045080536865
 21
163.2578594925767
 31
0.0
  0
SPLINE
  5
2CD
330
1F
100
AcDbEntity
  8
0
  6
Continuous
 62
     7
100
AcDbSpline
210
0.0
220
0.0
230
1.0
 70
     8
 71
     3
 72
    11
 73
     7
 74
     5
 42
0.000000001
 43
0.0000000001
 44
0.00000001
 40
0.0
 40
0.0
 40
0.0
 40
0.0
 40
2.307422523030413
 40
4.359725711932644
 40
5.984186492413143
 40
7.219752182549168
 40
7.219752182549168
 40
7.219752182549168
 40
7.219752182549168
 10
255.9038602420215
 20
160.2578594925766
 30
0.0
 10
255.1299485607775
 20
160.2985784122036
 30
0.0
 10
253.6676924643553
 20
160.3755141853133
 30
0.0
 10
251.7862376934505
 20
161.0015774617093
 30
0.0
 10
250.2825057850381
 20
161.9022990740851
 30
0.0
 10
250.018090713585
 20
162.8489115586005
 30
0.0
 10
249.9038602420215
 20
163.2578594925767
 30
0.0
 11
255.9038602420215
 21
160.2578594925766
 31
0.0
 11
253.6077666291131
 21
160.4862293221959
 31
0.0
 11
251.6612195549021
 21
161.136539149017
 31
0.0
 11
250.3605999012599
 21
162.1098126861225
 31
0.0
 11
249.9038602420215
 21
163.2578594925767
 31
0.0
  0
SPLINE
  5
2CE
330
1F
100
AcDbEntity
  8
0
  6
Continuous
 62
     7
100
AcDbSpline
210
0.0
220
0.0
230
1.0
 70
     8
 71
     3
 72
    11
 73
     7
 74
     5
 42
0.000000001
 43
0.0000000001
 44
0.00000001
 40
0.0
 40
0.0
 40
0.0
 40
0.0
 40
3.196401440010272
 40
6.532112407542913
 40
10.05545974901984
 40
13.70566001880793
 40
13.70566001880793
 40
13.70566001880793
 40
13.70566001880793
 10
345.404184147854
 20
173.0684982881504
 30
0.0
 10
345.2573881526153
 20
171.9942016811493
 30
0.0
 10
344.9573983033147
 20
169.7987871449999
 30
0.0
 10
342.726566889343
 20
167.1110098270579
 30
0.0
 10
339.6357614045933
 20
165.2803699578213
 30
0.0
 10
337.2288971066372
 20
165.0467401019438
 30
0.0
 10
336.004184147854
 20
164.9278594925766
 30
0.0
 11
345.404184147854
 21
173.0684982881504
 31
0.0
 11
344.6886253483804
 21
169.9532201642319
 31
0.0
 11
342.6509878910075
 21
167.3121973926099
 31
0.0
 11
339.6013974747437
 21
165.5475515908222
 31
0.0
 11
336.004184147854
 21
164.9278594925766
 31
0.0
  0
SPLINE
  5
2CF
330
1F
100
AcDbEntity
  8
0
  6
Continuous
 62
     7
100
AcDbSpline
210
0.0
220
0.0
230
1.0
 70
     8
 71
     3
 72
    11
 73
     7
 74
     5
 42
0.000000001
 43
0.0000000001
 44
0.00000001
 40
0.0
 40
0.0
 40
0.0
 40
0.0
 40
3.106553420969288
 40
6.105146902569194
 40
8.944049853013489
 40
11.66439150363945
 40
11.66439150363945
 40
11.66439150363945
 40
11.66439150363945
 10
336.004184147854
 20
166.1402950578749
 30
0.0
 10
337.0464930489035
 20
166.2414700445663
 30
0.0
 10
339.09488819547
 20
166.4403039665469
 30
0.0
 10
341.7253609484598
 20
167.9982953435521
 30
0.0
 10
343.6239408739069
 20
170.2857654014027
 30
0.0
 10
343.8792513859692
 20
172.1542033036187
 30
0.0
 10
344.004184147854
 20
173.0684982881504
 30
0.0
 11
336.004184147854
 21
166.1402950578749
 31
0.0
 11
339.0656422983984
 21
166.6676925882966
 31
0.0
 11
341.6610383973464
 21
168.169518802584
 31
0.0
 11
343.3951979355361
 21
170.417197757156
 31
0.0
 11
344.004184147854
 21
173.0684982881504
 31
0.0
  0
SPLINE
  5
2D0
330
1F
100
AcDbEntity
  8
0
  6
Continuous
 62
     7
100
AcDbSpline
210
0.0
220
0.0
230
1.0
 70
     8
 71
     3
 72
    11
 73
     7
 74
     5
 42
0.000000001
 43
0.0000000001
 44
0.00000001
 40
0.0
 40
0.0
 40
0.0
 40
0.0
 40
3.196401440010238
 40
6.532112407542874
 40
10.05545974901975
 40
13.70566001880786
 40
13.70566001880786
 40
13.70566001880786
 40
13.70566001880786
 10
204.404184147854
 20
164.0684982881505
 30
0.0
 10
204.5509801430927
 20
162.9942016811494
 30
0.0
 10
204.8509699923933
 20
160.798787145
 30
0.0
 10
207.0818014063651
 20
158.111009827058
 30
0.0
 10
210.1726068911146
 20
156.2803699578215
 30
0.0
 10
212.5794711890708
 20
156.046740101944
 30
0.0
 10
213.804184147854
 20
155.9278594925768
 30
0.0
 11
204.404184147854
 21
164.0684982881505
 31
0.0
 11
205.1197429473276
 21
160.9532201642321
 31
0.0
 11
207.1573804047005
 21
158.31219739261
 31
0.0
 11
210.2069708209642
 21
156.5475515908224
 31
0.0
 11
213.804184147854
 21
155.9278594925768
 31
0.0
  0
SPLINE
  5
2D1
330
1F
100
AcDbEntity
  8
0
  6
Continuous
 62
     7
100
AcDbSpline
210
0.0
220
0.0
230
1.0
 70
     8
 71
     3
 72
    11
 73
     7
 74
     5
 42
0.000000001
 43
0.0000000001
 44
0.00000001
 40
0.0
 40
0.0
 40
0.0
 40
0.0
 40
3.650200269788015
 40
7.173547611264967
 40
10.50925857879761
 40
13.70566001880791
 40
13.70566001880791
 40
13.70566001880791
 40
13.70566001880791
 10
336.004184147854
 20
155.9278594925768
 30
0.0
 10
337.2288971066372
 20
156.046740101944
 30
0.0
 10
339.6357614045932
 20
156.2803699578214
 30
0.0
 10
342.7265668893428
 20
158.1110098270579
 30
0.0
 10
344.9573983033147
 20
160.798787145
 30
0.0
 10
345.2573881526153
 20
162.9942016811494
 30
0.0
 10
345.404184147854
 20
164.0684982881505
 30
0.0
 11
336.004184147854
 21
155.9278594925768
 31
0.0
 11
339.6013974747437
 21
156.5475515908223
 31
0.0
 11
342.6509878910075
 21
158.31219739261
 31
0.0
 11
344.6886253483804
 21
160.953220164232
 31
0.0
 11
345.404184147854
 21
164.0684982881505
 31
0.0
  0
SPLINE
  5
2D2
330
1F
100
AcDbEntity
  8
0
  6
Continuous
 62
     7
100
AcDbSpline
210
0.0
220
0.0
230
1.0
 70
     8
 71
     3
 72
    11
 73
     7
 74
     5
 42
0.000000001
 43
0.0000000001
 44
0.00000001
 40
0.0
 40
0.0
 40
0.0
 40
0.0
 40
3.650200269788114
 40
7.17354761126502
 40
10.50925857879768
 40
13.70566001880795
 40
13.70566001880795
 40
13.70566001880795
 40
13.70566001880795
 10
213.804184147854
 20
164.9278594925766
 30
0.0
 10
212.5794711890708
 20
165.0467401019438
 30
0.0
 10
210.1726068911146
 20
165.2803699578213
 30
0.0
 10
207.0818014063652
 20
167.111009827058
 30
0.0
 10
204.8509699923933
 20
169.7987871449999
 30
0.0
 10
204.5509801430926
 20
171.9942016811493
 30
0.0
 10
204.404184147854
 20
173.0684982881504
 30
0.0
 11
213.804184147854
 21
164.9278594925766
 31
0.0
 11
210.2069708209642
 21
165.5475515908222
 31
0.0
 11
207.1573804047005
 21
167.3121973926099
 31
0.0
 11
205.1197429473276
 21
169.9532201642319
 31
0.0
 11
204.404184147854
 21
173.0684982881504
 31
0.0
  0
SPLINE
  5
2D3
330
1F
100
AcDbEntity
  8
0
  6
Continuous
 62
     7
100
AcDbSpline
210
0.0
220
0.0
230
1.0
 70
     8
 71
     3
 72
    11
 73
     7
 74
     5
 42
0.000000001
 43
0.0000000001
 44
0.00000001
 40
0.0
 40
0.0
 40
0.0
 40
0.0
 40
2.720341650625983
 40
5.559244601070272
 40
8.557838082670196
 40
11.66439150363952
 40
11.66439150363952
 40
11.66439150363952
 40
11.66439150363952
 10
205.804184147854
 20
173.0684982881504
 30
0.0
 10
205.9291169097387
 20
172.1542033036187
 30
0.0
 10
206.1844274218011
 20
170.2857654014026
 30
0.0
 10
208.0830073472482
 20
167.9982953435521
 30
0.0
 10
210.713480100238
 20
166.4403039665468
 30
0.0
 10
212.7618752468044
 20
166.2414700445661
 30
0.0
 10
213.804184147854
 20
166.1402950578748
 30
0.0
 11
205.804184147854
 21
173.0684982881504
 31
0.0
 11
206.4131703601719
 21
170.4171977571559
 31
0.0
 11
208.1473298983616
 21
168.169518802584
 31
0.0
 11
210.7427259973095
 21
166.6676925882965
 31
0.0
 11
213.804184147854
 21
166.1402950578748
 31
0.0
  0
SPLINE
  5
2D4
330
1F
100
AcDbEntity
  8
0
  6
Continuous
 62
     7
100
AcDbSpline
210
0.0
220
0.0
230
1.0
 70
     8
 71
     3
 72
    15
 73
    11
 74
     9
 42
0.000000001
 43
0.0000000001
 44
0.00000001
 40
0.0
 40
0.0
 40
0.0
 40
0.0
 40
0.1707095286530097
 40
0.3420740529305298
 40
0.5162357150758862
 40
0.6952692779244635
 40
0.8812117447817808
 40
1.076108713968301
 40
1.28204894940837
 40
1.501231740389653
 40
1.501231740389653
 40
1.501231740389653
 40
1.501231740389653
 10
200.154184147854
 20
181.3770994459028
 30
0.0
 10
200.1554806636257
 20
181.3201815142243
 30
0.0
 10
200.1580786843422
 20
181.206127262953
 30
0.0
 10
200.1790585175806
 20
181.0350704760806
 30
0.0
 10
200.2123135239001
 20
180.8632905415296
 30
0.0
 10
200.2592511892232
 20
180.6896557831208
 30
0.0
 10
200.3196643774515
 20
180.5129473983467
 30
0.0
 10
200.3943279181845
 20
180.3320611514807
 30
0.0
 10
200.4831241781438
 20
180.1452888940305
 30
0.0
 10
200.5517929456332
 20
180.0212986316082
 30
0.0
 10
200.5871968497463
 20
179.9573723594527
 30
0.0
 11
200.154184147854
 21
181.3770994459028
 31
0.0
 11
200.1608888574918
 21
181.2065216323277
 31
0.0
 11
200.1808788341429
 21
181.03632703348
 31
0.0
 11
200.2140369629035
 21
180.8653509432125
 31
0.0
 11
200.2604803012505
 21
180.6924462490213
 31
0.0
 11
200.3204537120566
 21
180.5164411603675
 31
0.0
 11
200.3944363244545
 21
180.336131976419
 31
0.0
 11
200.4830544539674
 21
180.1502335964806
 31
0.0
 11
200.5871968497463
 21
179.9573723594527
 31
0.0
  0
SPLINE
  5
2D5
330
1F
100
AcDbEntity
  8
0
  6
Continuous
 62
     7
100
AcDbSpline
210
0.0
220
0.0
230
1.0
 70
     8
 71
     3
 72
    15
 73
    11
 74
     9
 42
0.000000001
 43
0.0000000001
 44
0.00000001
 40
0.0
 40
0.0
 40
0.0
 40
0.0
 40
0.2191827909812831
 40
0.4251230264213524
 40
0.6200199956078662
 40
0.8059624624652111
 40
0.9849960253138084
 40
1.159157687459114
 40
1.330522211736722
 40
1.501231740389589
 40
1.501231740389589
 40
1.501231740389589
 40
1.501231740389589
 10
200.5871968497463
 20
182.7968265323528
 30
0.0
 10
200.5517929456333
 20
182.7329002601973
 30
0.0
 10
200.4831241781437
 20
182.6089099977751
 30
0.0
 10
200.3943279181845
 20
182.4221377403248
 30
0.0
 10
200.3196643774517
 20
182.2412514934588
 30
0.0
 10
200.2592511892231
 20
182.0645431086847
 30
0.0
 10
200.2123135239001
 20
181.890908350276
 30
0.0
 10
200.1790585175806
 20
181.7191284157248
 30
0.0
 10
200.1580786843422
 20
181.5480716288524
 30
0.0
 10
200.1554806636258
 20
181.4340173775813
 30
0.0
 10
200.154184147854
 20
181.3770994459028
 30
0.0
 11
200.5871968497463
 21
182.7968265323528
 31
0.0
 11
200.4830544539674
 21
182.6039652953249
 31
0.0
 11
200.3944363244545
 21
182.4180669153865
 31
0.0
 11
200.3204537120567
 21
182.237757731438
 31
0.0
 11
200.2604803012505
 21
182.0617526427842
 31
0.0
 11
200.2140369629036
 21
181.8888479485929
 31
0.0
 11
200.1808788341429
 21
181.7178718583255
 31
0.0
 11
200.1608888574918
 21
181.5476772594778
 31
0.0
 11
200.154184147854
 21
181.3770994459028
 31
0.0
  0
SPLINE
  5
2D6
330
1F
100
AcDbEntity
  8
0
  6
Continuous
 62
     7
100
AcDbSpline
210
0.0
220
0.0
230
1.0
 70
     8
 71
     3
 72
    15
 73
    11
 74
     9
 42
0.000000001
 43
0.0000000001
 44
0.00000001
 40
0.0
 40
0.0
 40
0.0
 40
0.0
 40
0.1707095286529813
 40
0.3420740529305296
 40
0.5162357150759193
 40
0.6952692779244617
 40
0.8812117447817973
 40
1.076108713968322
 40
1.282048949408315
 40
1.50123174038965
 40
1.50123174038965
 40
1.50123174038965
 40
1.50123174038965
 10
200.154184147854
 20
172.7168454080584
 30
0.0
 10
200.1554806636257
 20
172.6599274763799
 30
0.0
 10
200.1580786843423
 20
172.5458732251087
 30
0.0
 10
200.1790585175806
 20
172.3748164382363
 30
0.0
 10
200.2123135239001
 20
172.2030365036851
 30
0.0
 10
200.2592511892231
 20
172.0294017452764
 30
0.0
 10
200.3196643774517
 20
171.8526933605023
 30
0.0
 10
200.3943279181844
 20
171.6718071136363
 30
0.0
 10
200.4831241781438
 20
171.485034856186
 30
0.0
 10
200.5517929456331
 20
171.3610445937638
 30
0.0
 10
200.5871968497463
 20
171.2971183216083
 30
0.0
 11
200.154184147854
 21
172.7168454080584
 31
0.0
 11
200.1608888574918
 21
172.5462675944833
 31
0.0
 11
200.1808788341429
 21
172.3760729956356
 31
0.0
 11
200.2140369629036
 21
172.2050969053681
 31
0.0
 11
200.2604803012505
 21
172.0321922111769
 31
0.0
 11
200.3204537120566
 21
171.8561871225231
 31
0.0
 11
200.3944363244545
 21
171.6758779385746
 31
0.0
 11
200.4830544539673
 21
171.4899795586362
 31
0.0
 11
200.5871968497463
 21
171.2971183216083
 31
0.0
  0
SPLINE
  5
2D7
330
1F
100
AcDbEntity
  8
0
  6
Continuous
 62
     7
100
AcDbSpline
210
0.0
220
0.0
230
1.0
 70
     8
 71
     3
 72
    15
 73
    11
 74
     9
 42
0.000000001
 43
0.0000000001
 44
0.00000001
 40
0.0
 40
0.0
 40
0.0
 40
0.0
 40
0.2191827909810425
 40
0.4251230264214674
 40
0.6200199956078916
 40
0.805962462465218
 40
0.9849960253137879
 40
1.159157687459122
 40
1.330522211736698
 40
1.50123174038968
 40
1.50123174038968
 40
1.50123174038968
 40
1.50123174038968
 10
200.5871968497463
 20
174.1365724945085
 30
0.0
 10
200.5517929456333
 20
174.0726462223531
 30
0.0
 10
200.4831241781438
 20
173.9486559599309
 30
0.0
 10
200.3943279181843
 20
173.7618837024805
 30
0.0
 10
200.3196643774517
 20
173.5809974556146
 30
0.0
 10
200.2592511892232
 20
173.4042890708403
 30
0.0
 10
200.2123135239
 20
173.2306543124316
 30
0.0
 10
200.1790585175806
 20
173.0588743778805
 30
0.0
 10
200.1580786843422
 20
172.8878175910081
 30
0.0
 10
200.1554806636258
 20
172.773763339737
 30
0.0
 10
200.154184147854
 20
172.7168454080584
 30
0.0
 11
200.5871968497463
 21
174.1365724945085
 31
0.0
 11
200.4830544539675
 21
173.9437112574809
 31
0.0
 11
200.3944363244544
 21
173.7578128775421
 31
0.0
 11
200.3204537120566
 21
173.5775036935937
 31
0.0
 11
200.2604803012505
 21
173.4014986049399
 31
0.0
 11
200.2140369629036
 21
173.2285939107487
 31
0.0
 11
200.1808788341429
 21
173.0576178204812
 31
0.0
 11
200.1608888574918
 21
172.8874232216335
 31
0.0
 11
200.154184147854
 21
172.7168454080584
 31
0.0
  0
SPLINE
  5
2D8
330
1F
100
AcDbEntity
  8
0
  6
Continuous
 62
     7
100
AcDbSpline
210
0.0
220
0.0
230
1.0
 70
     8
 71
     3
 72
    15
 73
    11
 74
     9
 42
0.000000001
 43
0.0000000001
 44
0.00000001
 40
0.0
 40
0.0
 40
0.0
 40
0.0
 40
0.3412208375971225
 40
0.6821971923786356
 40
1.025751435788238
 40
1.374667448352273
 40
1.731747359233933
 40
2.09987914610628
 40
2.48208774586873
 40
2.881625200174079
 40
2.881625200174079
 40
2.881625200174079
 40
2.881625200174079
 10
200.154184147854
 20
177.0469724269806
 30
0.0
 10
200.1554757411897
 20
176.933224696951
 30
0.0
 10
200.1580580170628
 20
176.7058107367903
 30
0.0
 10
200.1789451740316
 20
176.3644013909379
 30
0.0
 10
200.2120740434556
 20
176.0214541811729
 30
0.0
 10
200.2588605491946
 20
175.6746636270217
 30
0.0
 10
200.3190990085648
 20
175.3216514617127
 30
0.0
 10
200.3936363545444
 20
174.9600582760641
 30
0.0
 10
200.4821566079107
 20
174.5870395083167
 30
0.0
 10
200.5516698013344
 20
174.3358811349592
 30
0.0
 10
200.5871968497463
 20
174.2075182540804
 30
0.0
 11
200.154184147854
 21
177.0469724269806
 31
0.0
 11
200.1608882492307
 21
176.7058174542774
 31
0.0
 11
200.1808788341429
 21
176.3654276021349
 31
0.0
 11
200.2140363194279
 21
176.0234771676045
 31
0.0
 11
200.2604803012505
 21
175.6776660332176
 31
0.0
 11
200.3204529240404
 21
175.3256584374074
 31
0.0
 11
200.3944363244545
 21
174.9650374880131
 31
0.0
 11
200.48305343648
 21
174.5932439683518
 31
0.0
 11
200.5871968497463
 21
174.2075182540804
 31
0.0
  0
SPLINE
  5
2D9
330
1F
100
AcDbEntity
  8
0
  6
Continuous
 62
     7
100
AcDbSpline
210
0.0
220
0.0
230
1.0
 70
     8
 71
     3
 72
    15
 73
    11
 74
     9
 42
0.000000001
 43
0.0000000001
 44
0.00000001
 40
0.0
 40
0.0
 40
0.0
 40
0.0
 40
0.3995374543053696
 40
0.781746054067799
 40
1.149877840940134
 40
1.506957751821804
 40
1.855873764385834
 40
2.199428007795468
 40
2.54040436257701
 40
2.88162520017399
 40
2.88162520017399
 40
2.88162520017399
 40
2.88162520017399
 10
200.5871968497463
 20
179.8864265998807
 30
0.0
 10
200.5516698013346
 20
179.7580637190019
 30
0.0
 10
200.4821566079107
 20
179.5069053456444
 30
0.0
 10
200.3936363545444
 20
179.1338865778971
 30
0.0
 10
200.3190990085649
 20
178.7722933922483
 30
0.0
 10
200.2588605491945
 20
178.4192812269394
 30
0.0
 10
200.2120740434558
 20
178.0724906727881
 30
0.0
 10
200.1789451740315
 20
177.7295434630232
 30
0.0
 10
200.158058017063
 20
177.3881341171708
 30
0.0
 10
200.1554757411897
 20
177.16072015701
 30
0.0
 10
200.154184147854
 20
177.0469724269806
 30
0.0
 11
200.5871968497463
 21
179.8864265998807
 31
0.0
 11
200.4830534364801
 21
179.5007008856093
 31
0.0
 11
200.3944363244545
 21
179.128907365948
 31
0.0
 11
200.3204529240404
 21
178.7682864165537
 31
0.0
 11
200.2604803012505
 21
178.4162788207435
 31
0.0
 11
200.2140363194279
 21
178.0704676863566
 31
0.0
 11
200.1808788341429
 21
177.7285172518262
 31
0.0
 11
200.1608882492307
 21
177.3881273996837
 31
0.0
 11
200.154184147854
 21
177.0469724269806
 31
0.0
  0
SPLINE
  5
2DA
330
1F
100
AcDbEntity
  8
0
  6
Continuous
 62
     7
100
AcDbSpline
210
0.0
220
0.0
230
1.0
 70
     8
 71
     3
 72
    11
 73
     7
 74
     5
 42
0.000000001
 43
0.0000000001
 44
0.00000001
 40
0.0
 40
0.0
 40
0.0
 40
0.0
 40
0.0990175461845252
 40
0.1689716060623976
 40
0.2561760235887183
 40
0.3145682257542202
 40
0.3145682257542202
 40
0.3145682257542202
 40
0.3145682257542202
 10
234.654184147854
 20
195.8046965516403
 30
0.0
 10
234.6824734642279
 20
195.8218116233517
 30
0.0
 10
234.7307486644052
 20
195.8510181638482
 30
0.0
 10
234.8094656972317
 20
195.8843496766589
 30
0.0
 10
234.8789495997258
 20
195.9050366454688
 30
0.0
 10
234.9275110241595
 20
195.9078113413281
 30
0.0
 10
234.9469868101516
 20
195.9089241391743
 30
0.0
 11
234.654184147854
 21
195.8046965516403
 31
0.0
 11
234.7403040940212
 21
195.8535619695606
 31
0.0
 11
234.804634552764
 21
195.8810421937355
 31
0.0
 11
234.8888212395358
 21
195.9037845051974
 31
0.0
 11
234.9469868101516
 21
195.9089241391743
 31
0.0
  0
SPLINE
  5
2DB
330
1F
100
AcDbEntity
  8
0
  6
Continuous
 62
     7
100
AcDbSpline
210
0.0
220
0.0
230
1.0
 70
     8
 71
     3
 72
    11
 73
     7
 74
     5
 42
0.000000001
 43
0.0000000001
 44
0.00000001
 40
0.0
 40
0.0
 40
0.0
 40
0.0
 40
2.307422523030322
 40
4.359725711932455
 40
5.984186492413007
 40
7.219752182549048
 40
7.219752182549048
 40
7.219752182549048
 40
7.219752182549048
 10
293.9045080536865
 20
161.4702950578749
 30
0.0
 10
294.6784197349305
 20
161.5110139775019
 30
0.0
 10
296.1406758313526
 20
161.5879497506115
 30
0.0
 10
298.0221306022575
 20
162.2140130270076
 30
0.0
 10
299.5258625106698
 20
163.1147346393834
 30
0.0
 10
299.7902775821229
 20
164.0613471238987
 30
0.0
 10
299.9045080536865
 20
164.4702950578749
 30
0.0
 11
293.9045080536865
 21
161.4702950578749
 31
0.0
 11
296.2006016665948
 21
161.6986648874941
 31
0.0
 11
298.1471487408057
 21
162.3489747143153
 31
0.0
 11
299.447768394448
 21
163.3222482514207
 31
0.0
 11
299.9045080536865
 21
164.4702950578749
 31
0.0
  0
SPLINE
  5
2DC
330
1F
100
AcDbEntity
  8
0
  6
Continuous
 62
     7
100
AcDbSpline
210
0.0
220
0.0
230
1.0
 70
     8
 71
     3
 72
    11
 73
     7
 74
     5
 42
0.000000001
 43
0.0000000001
 44
0.00000001
 40
0.0
 40
0.0
 40
0.0
 40
0.0
 40
2.307422523030405
 40
4.359725711932645
 40
5.984186492413145
 40
7.219752182549144
 40
7.219752182549144
 40
7.219752182549144
 40
7.219752182549144
 10
255.9038602420215
 20
161.4702950578749
 30
0.0
 10
255.1299485607775
 20
161.5110139775019
 30
0.0
 10
253.6676924643554
 20
161.5879497506115
 30
0.0
 10
251.7862376934505
 20
162.2140130270075
 30
0.0
 10
250.2825057850381
 20
163.1147346393832
 30
0.0
 10
250.018090713585
 20
164.0613471238987
 30
0.0
 10
249.9038602420215
 20
164.4702950578749
 30
0.0
 11
255.9038602420215
 21
161.4702950578749
 31
0.0
 11
253.6077666291131
 21
161.6986648874941
 31
0.0
 11
251.6612195549021
 21
162.3489747143153
 31
0.0
 11
250.3605999012599
 21
163.3222482514207
 31
0.0
 11
249.9038602420215
 21
164.4702950578749
 31
0.0
  0
SPLINE
  5
2DD
330
1F
100
AcDbEntity
  8
0
  6
Continuous
 62
     7
100
AcDbSpline
210
0.0
220
0.0
230
1.0
 70
     8
 71
     3
 72
     9
 73
     5
 74
     3
 42
0.000000001
 43
0.0000000001
 44
0.00000001
 40
0.0
 40
0.0
 40
0.0
 40
0.0
 40
3.20065416630511
 40
7.078420949818893
 40
7.078420949818893
 40
7.078420949818893
 40
7.078420949818893
 10
248.649124180828
 20
166.7771959672992
 30
0.0
 10
247.7035984203401
 20
166.2534026401587
 30
0.0
 10
245.6125167142062
 20
165.0950051974522
 30
0.0
 10
243.2164796718849
 20
164.9870180250413
 30
0.0
 10
241.9038602420215
 20
164.9278594925767
 30
0.0
 11
248.649124180828
 21
166.7771959672992
 31
0.0
 11
245.7501962483718
 21
165.4205810828891
 31
0.0
 11
241.9038602420215
 21
164.9278594925767
 31
0.0
  0
SPLINE
  5
2DE
330
1F
100
AcDbEntity
  8
0
  6
Continuous
 62
     7
100
AcDbSpline
210
0.0
220
0.0
230
1.0
 70
     8
 71
     3
 72
     9
 73
     5
 74
     3
 42
0.000000001
 43
0.0000000001
 44
0.00000001
 40
0.0
 40
0.0
 40
0.0
 40
0.0
 40
3.200654166305146
 40
7.078420949818918
 40
7.078420949818918
 40
7.078420949818918
 40
7.078420949818918
 10
248.649124180828
 20
167.9896315325975
 30
0.0
 10
247.7035984203401
 20
167.465838205457
 30
0.0
 10
245.6125167142062
 20
166.3074407627503
 30
0.0
 10
243.2164796718849
 20
166.1994535903395
 30
0.0
 10
241.9038602420215
 20
166.140295057875
 30
0.0
 11
248.649124180828
 21
167.9896315325975
 31
0.0
 11
245.7501962483718
 21
166.6330166481873
 31
0.0
 11
241.9038602420215
 21
166.140295057875
 31
0.0
  0
SPLINE
  5
2DF
330
1F
100
AcDbEntity
  8
0
  6
Continuous
 62
     7
100
AcDbSpline
210
0.0
220
0.0
230
1.0
 70
     8
 71
     3
 72
    17
 73
    13
 74
    11
 42
0.000000001
 43
0.0000000001
 44
0.00000001
 40
0.0
 40
0.0
 40
0.0
 40
0.0
 40
0.0702086059090251
 40
0.2072305013822133
 40
0.3995540996939732
 40
0.6357176714665119
 40
0.9043306647039551
 40
1.194106935914637
 40
1.373305465433603
 40
1.515169274864991
 40
1.610833080278834
 40
1.65189659198186
 40
1.65189659198186
 40
1.65189659198186
 40
1.65189659198186
 10
248.649124180828
 20
166.7771959672992
 30
0.0
 10
248.6680426622223
 20
166.7909723571052
 30
0.0
 10
248.7238832118601
 20
166.8316352799874
 30
0.0
 10
248.8306832232158
 20
166.9112148161468
 30
0.0
 10
248.9804282635641
 20
167.0257249288171
 30
0.0
 10
249.1626819685312
 20
167.1698812218086
 30
0.0
 10
249.3672484790301
 20
167.3381750974278
 30
0.0
 10
249.552906272969
 20
167.4992824420848
 30
0.0
 10
249.7042754675813
 20
167.6357453624429
 30
0.0
 10
249.8030466076701
 20
167.732967460376
 30
0.0
 10
249.8712975062033
 20
167.7969591640613
 30
0.0
 10
249.8963393760476
 20
167.8351474826116
 30
0.0
 10
249.9038602420215
 20
167.846616631628
 30
0.0
 11
248.649124180828
 21
166.7771959672992
 31
0.0
 11
248.705828173169
 21
166.8185953051865
 31
0.0
 11
248.8157586000665
 21
166.9003895666133
 31
0.0
 11
248.9685302655023
 21
167.0172192919783
 31
0.0
 11
249.1537579734579
 21
167.1637250216804
 31
0.0
 11
249.3610565279151
 21
167.3345472961186
 31
0.0
 11
249.5800407328554
 21
167.5243266556915
 31
0.0
 11
249.7124481486846
 21
167.6450759380715
 31
0.0
 11
249.8146719824394
 21
167.743440709252
 31
0.0
 11
249.8805350686936
 21
167.8128209476364
 31
0.0
 11
249.9038602420215
 21
167.846616631628
 31
0.0
  0
SPLINE
  5
2E0
330
1F
100
AcDbEntity
  8
0
  6
Continuous
 62
     7
100
AcDbSpline
210
0.0
220
0.0
230
1.0
 70
     8
 71
     3
 72
    17
 73
    13
 74
    11
 42
0.000000001
 43
0.0000000001
 44
0.00000001
 40
0.0
 40
0.0
 40
0.0
 40
0.0
 40
0.0451643530498991
 40
0.1476995486465373
 40
0.2985733274827124
 40
0.488280299172399
 40
0.8055309746648613
 40
1.098596786163687
 40
1.355073093342676
 40
1.562432491124078
 40
1.708063662312346
 40
1.779296349840124
 40
1.779296349840124
 40
1.779296349840124
 40
1.779296349840124
 10
249.9038602420215
 20
169.2462008131838
 30
0.0
 10
249.8965523840609
 20
169.233006407443
 30
0.0
 10
249.8726537463123
 20
169.1898571511334
 30
0.0
 10
249.805563022841
 20
169.1154249897122
 30
0.0
 10
249.7091801442991
 20
169.0039065291359
 30
0.0
 10
249.5587475266376
 20
168.8441126903181
 30
0.0
 10
249.3721842078924
 20
168.6536245090655
 30
0.0
 10
249.1644800056539
 20
168.452704784999
 30
0.0
 10
248.9796710278578
 20
168.2809325843075
 30
0.0
 10
248.8285312968136
 20
168.1451668463313
 30
0.0
 10
248.7221167775623
 20
168.0520360649595
 30
0.0
 10
248.6671718042191
 20
168.0050612335948
 30
0.0
 10
248.649124180828
 20
167.9896315325975
 30
0.0
 11
249.9038602420215
 21
169.2462008131838
 31
0.0
 11
249.8810680037
 21
169.2072093701068
 31
0.0
 11
249.816723315758
 21
169.1273768741702
 31
0.0
 11
249.7168803924595
 21
169.0142650366996
 31
0.0
 11
249.5875934480685
 21
168.8754355690205
 31
0.0
 11
249.3654845510447
 21
168.6489060368734
 31
0.0
 11
249.1550025183497
 21
168.4449823164139
 31
0.0
 11
248.9671364074819
 21
168.2703787066992
 31
0.0
 11
248.81287527594
 21
168.1318095067868
 31
0.0
 11
248.7032081812225
 21
168.0359890157337
 31
0.0
 11
248.649124180828
 21
167.9896315325975
 31
0.0
  0
SPLINE
  5
2E1
330
1F
100
AcDbEntity
  8
0
  6
Continuous
 62
     7
100
AcDbSpline
210
0.0
220
0.0
230
1.0
 70
     8
 71
     3
 72
     9
 73
     5
 74
     3
 42
0.000000001
 43
0.0000000001
 44
0.00000001
 40
0.0
 40
0.0
 40
0.0
 40
0.0
 40
3.200654166305134
 40
7.078420949819006
 40
7.078420949819006
 40
7.078420949819006
 40
7.078420949819006
 10
301.1592441148799
 20
166.7771959672993
 30
0.0
 10
302.1047698753679
 20
166.2534026401588
 30
0.0
 10
304.1958515815018
 20
165.0950051974521
 30
0.0
 10
306.5918886238231
 20
164.9870180250413
 30
0.0
 10
307.9045080536865
 20
164.9278594925767
 30
0.0
 11
301.1592441148799
 21
166.7771959672993
 31
0.0
 11
304.0581720473361
 21
165.4205810828891
 31
0.0
 11
307.9045080536865
 21
164.9278594925767
 31
0.0
  0
SPLINE
  5
2E2
330
1F
100
AcDbEntity
  8
0
  6
Continuous
 62
     7
100
AcDbSpline
210
0.0
220
0.0
230
1.0
 70
     8
 71
     3
 72
     9
 73
     5
 74
     3
 42
0.000000001
 43
0.0000000001
 44
0.00000001
 40
0.0
 40
0.0
 40
0.0
 40
0.0
 40
3.200654166305146
 40
7.078420949819003
 40
7.078420949819003
 40
7.078420949819003
 40
7.078420949819003
 10
301.1592441148799
 20
167.9896315325975
 30
0.0
 10
302.1047698753678
 20
167.465838205457
 30
0.0
 10
304.1958515815018
 20
166.3074407627503
 30
0.0
 10
306.5918886238231
 20
166.1994535903395
 30
0.0
 10
307.9045080536865
 20
166.140295057875
 30
0.0
 11
301.1592441148799
 21
167.9896315325975
 31
0.0
 11
304.0581720473361
 21
166.6330166481873
 31
0.0
 11
307.9045080536865
 21
166.140295057875
 31
0.0
  0
SPLINE
  5
2E3
330
1F
100
AcDbEntity
  8
0
  6
Continuous
 62
     7
100
AcDbSpline
210
0.0
220
0.0
230
1.0
 70
     8
 71
     3
 72
    17
 73
    13
 74
    11
 42
0.000000001
 43
0.0000000001
 44
0.00000001
 40
0.0
 40
0.0
 40
0.0
 40
0.0
 40
0.0410635921805081
 40
0.1367276061376489
 40
0.2785917323710581
 40
0.4577906671258427
 40
0.747566460336251
 40
1.016178998053792
 40
1.252342212312225
 40
1.444665627329589
 40
1.581687590333874
 40
1.651896591438677
 40
1.651896591438677
 40
1.651896591438677
 40
1.651896591438677
 10
299.9045080536865
 20
167.8466166316281
 30
0.0
 10
299.9120289371709
 20
167.8351474620025
 30
0.0
 10
299.9370708691771
 20
167.7969590689486
 30
0.0
 10
300.0053219206118
 20
167.7329672321994
 30
0.0
 10
300.10409329156
 20
167.6357449270563
 30
0.0
 10
300.2554625605352
 20
167.4992819676775
 30
0.0
 10
300.4411202330938
 20
167.3381747517197
 30
0.0
 10
300.6456864147659
 20
167.1698811540828
 30
0.0
 10
300.8279398586624
 20
167.0257250664165
 30
0.0
 10
300.9776847712382
 20
166.9112150463901
 30
0.0
 10
301.0844848550967
 20
166.8316354516611
 30
0.0
 10
301.1403255276097
 20
166.7909724354939
 30
0.0
 10
301.1592441148799
 20
166.7771959672993
 30
0.0
 11
299.9045080536865
 21
167.8466166316281
 31
0.0
 11
299.9278332802898
 21
167.8128208866219
 31
0.0
 11
299.9936965182495
 21
167.743440504706
 31
0.0
 11
300.0959205899501
 21
167.6450755239077
 31
0.0
 11
300.2283283177753
 21
167.5243259822542
 31
0.0
 11
300.4473121757864
 21
167.3345469522277
 31
0.0
 11
300.6546103829766
 21
167.1637249726611
 31
0.0
 11
300.8398378099135
 21
167.0172194639698
 31
0.0
 11
300.9926093271647
 21
166.900389846569
 31
0.0
 11
301.1025398052976
 21
166.8185955408737
 31
0.0
 11
301.1592441148799
 21
166.7771959672993
 31
0.0
  0
SPLINE
  5
2E4
330
1F
100
AcDbEntity
  8
0
  6
Continuous
 62
     7
100
AcDbSpline
210
0.0
220
0.0
230
1.0
 70
     8
 71
     3
 72
    17
 73
    13
 74
    11
 42
0.000000001
 43
0.0000000001
 44
0.00000001
 40
0.0
 40
0.0
 40
0.0
 40
0.0
 40
0.0451642818568608
 40
0.1476992964992125
 40
0.298572802657162
 40
0.4882794280322651
 40
0.8055305592642873
 40
1.098596800516454
 40
1.355073438243929
 40
1.562432993460998
 40
1.708064074673087
 40
1.779296350280927
 40
1.779296350280927
 40
1.779296350280927
 40
1.779296350280927
 10
299.9045080536865
 20
169.2462008131838
 30
0.0
 10
299.9118158976855
 20
169.2330064268506
 30
0.0
 10
299.9357144866495
 20
169.1898572396551
 30
0.0
 10
300.0028050874946
 20
169.1154252039586
 30
0.0
 10
300.0991877826549
 20
169.0039069369734
 30
0.0
 10
300.2496203497111
 20
168.8441131252731
 30
0.0
 10
300.4361837835777
 20
168.6536248052381
 30
0.0
 10
300.6438882747021
 20
168.4527047965507
 30
0.0
 10
300.828697478115
 20
168.280932389207
 30
0.0
 10
300.9798373111744
 20
168.1451665662542
 30
0.0
 10
301.0862517465545
 20
168.0520358633725
 30
0.0
 10
301.1411965950828
 20
168.0050611434676
 30
0.0
 10
301.1592441148799
 20
167.9896315325975
 30
0.0
 11
299.9045080536865
 21
169.2462008131838
 31
0.0
 11
299.9273002493977
 21
169.207209427663
 31
0.0
 11
299.9916448162415
 21
169.1273770665357
 31
0.0
 11
300.091487550059
 21
169.0142654255226
 31
0.0
 11
300.2207742466905
 21
168.875436200344
 31
0.0
 11
300.4428834493826
 21
168.6489063296449
 31
0.0
 11
300.6533657875414
 21
168.4449823068597
 31
0.0
 11
300.8412321421687
 21
168.2703784738754
 31
0.0
 11
300.9954933942663
 21
168.1318091725788
 31
0.0
 11
301.1051604248361
 21
168.0359887448572
 31
0.0
 11
301.1592441148799
 21
167.9896315325975
 31
0.0
  0
SPLINE
  5
2E5
330
1F
100
AcDbEntity
  8
0
  6
Continuous
 62
     7
100
AcDbSpline
210
0.0
220
0.0
230
1.0
 70
     8
 71
     3
 72
    15
 73
    11
 74
     9
 42
0.000000001
 43
0.0000000001
 44
0.00000001
 40
0.0
 40
0.0
 40
0.0
 40
0.0
 40
0.3995374543053452
 40
0.7817460540677996
 40
1.14987784094009
 40
1.506957751821782
 40
1.855873764385825
 40
2.199428007795425
 40
2.540404362576966
 40
2.88162520017406
 40
2.88162520017406
 40
2.88162520017406
 40
2.88162520017406
 10
349.2211714459618
 20
174.2075182540804
 30
0.0
 10
349.2566984943734
 20
174.3358811349592
 30
0.0
 10
349.326211687797
 20
174.5870395083168
 30
0.0
 10
349.4147319411638
 20
174.960058276064
 30
0.0
 10
349.4892692871431
 20
175.3216514617128
 30
0.0
 10
349.5495077465133
 20
175.6746636270216
 30
0.0
 10
349.5962942522525
 20
176.0214541811731
 30
0.0
 10
349.6294231216765
 20
176.3644013909379
 30
0.0
 10
349.6503102786451
 20
176.7058107367903
 30
0.0
 10
349.6528925545183
 20
176.9332246969511
 30
0.0
 10
349.654184147854
 20
177.0469724269806
 30
0.0
 11
349.2211714459618
 21
174.2075182540804
 31
0.0
 11
349.3253148592278
 21
174.5932439683519
 31
0.0
 11
349.4139319712536
 21
174.9650374880131
 31
0.0
 11
349.4879153716676
 21
175.3256584374074
 31
0.0
 11
349.5478879944575
 21
175.6776660332176
 31
0.0
 11
349.5943319762802
 21
176.0234771676045
 31
0.0
 11
349.6274894615651
 21
176.3654276021349
 31
0.0
 11
349.6474800464773
 21
176.7058174542774
 31
0.0
 11
349.654184147854
 21
177.0469724269806
 31
0.0
  0
SPLINE
  5
2E6
330
1F
100
AcDbEntity
  8
0
  6
Continuous
 62
     7
100
AcDbSpline
210
0.0
220
0.0
230
1.0
 70
     8
 71
     3
 72
    15
 73
    11
 74
     9
 42
0.000000001
 43
0.0000000001
 44
0.00000001
 40
0.0
 40
0.0
 40
0.0
 40
0.0
 40
0.3412208375969799
 40
0.6821971923785214
 40
1.025751435788155
 40
1.37466744835219
 40
1.731747359233826
 40
2.099879146106173
 40
2.482087745868628
 40
2.881625200173975
 40
2.881625200173975
 40
2.881625200173975
 40
2.881625200173975
 10
349.654184147854
 20
177.0469724269806
 30
0.0
 10
349.6528925545183
 20
177.1607201570101
 30
0.0
 10
349.6503102786451
 20
177.3881341171708
 30
0.0
 10
349.6294231216764
 20
177.7295434630232
 30
0.0
 10
349.5962942522523
 20
178.0724906727881
 30
0.0
 10
349.5495077465136
 20
178.4192812269395
 30
0.0
 10
349.4892692871431
 20
178.7722933922483
 30
0.0
 10
349.4147319411639
 20
179.133886577897
 30
0.0
 10
349.3262116877971
 20
179.5069053456443
 30
0.0
 10
349.2566984943736
 20
179.7580637190019
 30
0.0
 10
349.2211714459618
 20
179.8864265998807
 30
0.0
 11
349.654184147854
 21
177.0469724269806
 31
0.0
 11
349.6474800464773
 21
177.3881273996837
 31
0.0
 11
349.6274894615651
 21
177.7285172518262
 31
0.0
 11
349.5943319762801
 21
178.0704676863566
 31
0.0
 11
349.5478879944575
 21
178.4162788207435
 31
0.0
 11
349.4879153716676
 21
178.7682864165537
 31
0.0
 11
349.4139319712536
 21
179.128907365948
 31
0.0
 11
349.3253148592279
 21
179.5007008856093
 31
0.0
 11
349.2211714459618
 21
179.8864265998807
 31
0.0
  0
SPLINE
  5
2E7
330
1F
100
AcDbEntity
  8
0
  6
Continuous
 62
     7
100
AcDbSpline
210
0.0
220
0.0
230
1.0
 70
     8
 71
     3
 72
    15
 73
    11
 74
     9
 42
0.000000001
 43
0.0000000001
 44
0.00000001
 40
0.0
 40
0.0
 40
0.0
 40
0.0
 40
0.219182790981206
 40
0.4251230264213022
 40
0.620019995607731
 40
0.8059624624651394
 40
0.9849960253137147
 40
1.159157687459065
 40
1.330522211736575
 40
1.501231740389588
 40
1.501231740389588
 40
1.501231740389588
 40
1.501231740389588
 10
349.2211714459618
 20
179.9573723594527
 30
0.0
 10
349.2565753500749
 20
180.0212986316082
 30
0.0
 10
349.3252441175644
 20
180.1452888940305
 30
0.0
 10
349.4140403775234
 20
180.3320611514806
 30
0.0
 10
349.4887039182562
 20
180.5129473983468
 30
0.0
 10
349.5491171064849
 20
180.6896557831207
 30
0.0
 10
349.5960547718078
 20
180.8632905415296
 30
0.0
 10
349.6293097781274
 20
181.0350704760806
 30
0.0
 10
349.6502896113658
 20
181.2061272629531
 30
0.0
 10
349.6528876320821
 20
181.3201815142242
 30
0.0
 10
349.654184147854
 20
181.3770994459028
 30
0.0
 11
349.2211714459618
 21
179.9573723594527
 31
0.0
 11
349.3253138417406
 21
180.1502335964805
 31
0.0
 11
349.4139319712535
 21
180.336131976419
 31
0.0
 11
349.4879145836512
 21
180.5164411603674
 31
0.0
 11
349.5478879944575
 21
180.6924462490213
 31
0.0
 11
349.5943313328044
 21
180.8653509432125
 31
0.0
 11
349.6274894615651
 21
181.03632703348
 31
0.0
 11
349.6474794382161
 21
181.2065216323277
 31
0.0
 11
349.654184147854
 21
181.3770994459028
 31
0.0
  0
SPLINE
  5
2E8
330
1F
100
AcDbEntity
  8
0
  6
Continuous
 62
     7
100
AcDbSpline
210
0.0
220
0.0
230
1.0
 70
     8
 71
     3
 72
    15
 73
    11
 74
     9
 42
0.000000001
 43
0.0000000001
 44
0.00000001
 40
0.0
 40
0.0
 40
0.0
 40
0.0
 40
0.1707095286529824
 40
0.3420740529305557
 40
0.5162357150758221
 40
0.6952692779244523
 40
0.8812117447817884
 40
1.076108713968196
 40
1.282048949408316
 40
1.501231740389624
 40
1.501231740389624
 40
1.501231740389624
 40
1.501231740389624
 10
349.654184147854
 20
172.7168454080584
 30
0.0
 10
349.6528876320821
 20
172.7737633397369
 30
0.0
 10
349.6502896113658
 20
172.8878175910081
 30
0.0
 10
349.6293097781274
 20
173.0588743778805
 30
0.0
 10
349.5960547718078
 20
173.2306543124316
 30
0.0
 10
349.5491171064849
 20
173.4042890708403
 30
0.0
 10
349.4887039182561
 20
173.5809974556144
 30
0.0
 10
349.4140403775236
 20
173.7618837024804
 30
0.0
 10
349.3252441175644
 20
173.9486559599307
 30
0.0
 10
349.2565753500748
 20
174.072646222353
 30
0.0
 10
349.2211714459618
 20
174.1365724945085
 30
0.0
 11
349.654184147854
 21
172.7168454080584
 31
0.0
 11
349.6474794382161
 21
172.8874232216335
 31
0.0
 11
349.6274894615651
 21
173.0576178204812
 31
0.0
 11
349.5943313328044
 21
173.2285939107486
 31
0.0
 11
349.5478879944575
 21
173.4014986049399
 31
0.0
 11
349.4879145836513
 21
173.5775036935937
 31
0.0
 11
349.4139319712536
 21
173.7578128775421
 31
0.0
 11
349.3253138417407
 21
173.9437112574806
 31
0.0
 11
349.2211714459618
 21
174.1365724945085
 31
0.0
  0
SPLINE
  5
2E9
330
1F
100
AcDbEntity
  8
0
  6
Continuous
 62
     7
100
AcDbSpline
210
0.0
220
0.0
230
1.0
 70
     8
 71
     3
 72
    15
 73
    11
 74
     9
 42
0.000000001
 43
0.0000000001
 44
0.00000001
 40
0.0
 40
0.0
 40
0.0
 40
0.0
 40
0.2192951268117313
 40
0.4252518244384039
 40
0.620148793625536
 40
0.8060912604856992
 40
0.9851248233368182
 40
1.159286485483463
 40
1.330651009760392
 40
1.501360538409887
 40
1.501360538409887
 40
1.501360538409887
 40
1.501360538409887
 10
349.2211714459618
 20
171.2969724269806
 30
0.0
 10
349.2565718019151
 20
171.3609432305315
 30
0.0
 10
349.3252193064009
 20
171.484993877719
 30
0.0
 10
349.4140392319838
 20
171.671801371712
 30
0.0
 10
349.4887036822601
 20
171.8526935263741
 30
0.0
 10
349.5491171659526
 20
172.0294017034789
 30
0.0
 10
349.5960547566021
 20
172.2030365143758
 30
0.0
 10
349.6293097820652
 20
172.3748164354729
 30
0.0
 10
349.6502896103931
 20
172.5458732257952
 30
0.0
 10
349.6528876317583
 20
172.6599274766087
 30
0.0
 10
349.654184147854
 20
172.7168454080584
 30
0.0
 11
349.2211714459618
 21
171.2969724269806
 31
0.0
 11
349.3253138417408
 21
171.4899613218078
 31
0.0
 11
349.4139319712536
 21
171.6758779385746
 31
0.0
 11
349.4879145836512
 21
171.8561871225231
 31
0.0
 11
349.5478879944575
 21
172.0321922111769
 31
0.0
 11
349.5943313328044
 21
172.2050969053682
 31
0.0
 11
349.6274894615651
 21
172.3760729956356
 31
0.0
 11
349.6474794382161
 21
172.5462675944833
 31
0.0
 11
349.654184147854
 21
172.7168454080584
 31
0.0
  0
SPLINE
  5
2EA
330
1F
100
AcDbEntity
  8
0
  6
Continuous
 62
     7
100
AcDbSpline
210
0.0
220
0.0
230
1.0
 70
     8
 71
     3
 72
    15
 73
    11
 74
     9
 42
0.000000001
 43
0.0000000001
 44
0.00000001
 40
0.0
 40
0.0
 40
0.0
 40
0.0
 40
0.1707095286494101
 40
0.3420740529263675
 40
0.5162357150730399
 40
0.6952692779241039
 40
0.8812117447842585
 40
1.076108713971438
 40
1.282065411598088
 40
1.501360538409894
 40
1.501360538409894
 40
1.501360538409894
 40
1.501360538409894
 10
349.654184147854
 20
181.3770994459028
 30
0.0
 10
349.6528876317584
 20
181.4340173773525
 30
0.0
 10
349.6502896103931
 20
181.548071628166
 30
0.0
 10
349.6293097820652
 20
181.7191284184883
 30
0.0
 10
349.5960547566021
 20
181.8909083395853
 30
0.0
 10
349.5491171659526
 20
182.0645431504823
 30
0.0
 10
349.48870368226
 20
182.241251327587
 30
0.0
 10
349.4140392319836
 20
182.4221434822491
 30
0.0
 10
349.3252193064009
 20
182.6089509762421
 30
0.0
 10
349.256571801915
 20
182.7330016234298
 30
0.0
 10
349.2211714459618
 20
182.7969724269806
 30
0.0
 11
349.654184147854
 21
181.3770994459028
 31
0.0
 11
349.6474794382161
 21
181.5476772594778
 31
0.0
 11
349.6274894615651
 21
181.7178718583255
 31
0.0
 11
349.5943313328044
 21
181.888847948593
 31
0.0
 11
349.5478879944575
 21
182.0617526427842
 31
0.0
 11
349.4879145836512
 21
182.237757731438
 31
0.0
 11
349.4139319712535
 21
182.4180669153865
 31
0.0
 11
349.3253138417408
 21
182.6039835321534
 31
0.0
 11
349.2211714459618
 21
182.7969724269806
 31
0.0
  0
SPLINE
  5
2EB
330
1F
100
AcDbEntity
  8
0
  6
Continuous
 62
     7
100
AcDbSpline
210
0.0
220
0.0
230
1.0
 70
     8
 71
     3
 72
    11
 73
     7
 74
     5
 42
0.000000001
 43
0.0000000001
 44
0.00000001
 40
0.0
 40
0.0
 40
0.0
 40
0.0
 40
0.0695760344737256
 40
0.1455983630377156
 40
0.2271862915321632
 40
0.3145714393201018
 40
0.3145714393201018
 40
0.3145714393201018
 40
0.3145714393201018
 10
314.8613814855564
 20
195.9089241391743
 30
0.0
 10
314.8845913731161
 20
195.9073807259864
 30
0.0
 10
314.9331615674906
 20
195.9041508856088
 30
0.0
 10
315.006050452002
 20
195.8817508251504
 30
0.0
 10
315.0811047609266
 20
195.8491938024642
 30
0.0
 10
315.129273488466
 20
195.8198643894268
 30
0.0
 10
315.154184147854
 20
195.8046965516403
 30
0.0
 11
314.8613814855564
 21
195.9089241391743
 31
0.0
 11
314.9305870021823
 21
195.9017532797207
 31
0.0
 11
315.0037337429442
 21
195.8810421937354
 31
0.0
 11
315.0784903824562
 21
195.8483613865662
 31
0.0
 11
315.154184147854
 21
195.8046965516403
 31
0.0
  0
MTEXT
  5
2EC
330
1F
100
AcDbEntity
  8
Symbole_TC_020513_DIN_
 62
     7
100
AcDbMText
 10
30.43361060400982
 20
348.1773257511927
 30
0.0
 40
7.0
 41
0.0
 71
     4
 72
     1
  1
Panel\Pcut\Pout
  7
CONVERTER_11
 73
     1
 44
0.90036014405762
  0
DIMENSION
  5
2F8
330
1F
100
AcDbEntity
  8
1
100
AcDbDimension
  2
*D2
 10
377.0541841468941
 20
307.5570229333195
 30
0.0
 11
461.0554814000933
 21
314.5570229333195
 31
0.0
 70
    32
  1
170
 71
     5
 42
-1.0
 53
0.00013888888889
  3
ME10_DIM_10
100
AcDbAlignedDimension
 13
545.0567786532926
 23
177.0469724269806
 33
0.0
 14
377.0541841468941
 24
281.6634688218542
 34
0.0
100
AcDbRotatedDimension
  0
DIMENSION
  5
303
330
1F
100
AcDbEntity
  8
1
100
AcDbDimension
  2
*D3
 10
64.49146532338014
 20
354.8347746807536
 30
0.0
 11
99.49146532338014
 21
361.8347746807536
 31
0.0
 70
    32
  1
<>
 71
     5
 42
-1.0
 53
0.00013888888889
  3
ME10_DIM_11
100
AcDbAlignedDimension
 13
134.4914653233801
 23
340.4097746807536
 33
0.0
 14
64.49146532338014
 24
340.4097746807536
 34
0.0
100
AcDbRotatedDimension
  0
DIMENSION
  5
30E
330
1F
100
AcDbEntity
  8
1
100
AcDbDimension
  2
*D4
 10
164.4914653233801
 20
334.8347746807536
 30
0.0
 11
157.4914653233801
 21
260.8347746807536
 31
0.0
 70
    32
  1
<>
 71
     5
 42
-1.0
 53
90.0
  3
ME10_DIM_12
100
AcDbAlignedDimension
 13
140.0664653233801
 23
186.8347746807536
 33
0.0
 14
140.0664653233801
 24
334.8347746807536
 34
0.0
 50
90.0
100
AcDbRotatedDimension
  0
DIMENSION
  5
319
330
1F
100
AcDbEntity
  8
1
100
AcDbDimension
  2
*D5
 10
575.0567786532926
 20
149.3469724269806
 30
0.0
 11
567.7567786532926
 21
169.4469724269806
 31
0.0
 70
    32
  1
<>
 71
     5
 42
-1.0
 53
90.0
  3
ME10_DIM_13
100
AcDbAlignedDimension
 13
471.6766831460934
 23
189.5469724269806
 33
0.0
 14
497.5541841468941
 24
149.3469724269806
 34
0.0
 50
90.0
100
AcDbRotatedDimension
  0
DIMENSION
  5
326
330
1F
100
AcDbEntity
  8
1
100
AcDbDimension
  2
*D6
 10
560.0567786532926
 20
149.3469724269806
 30
0.0
 11
552.7567786532926
 21
134.2969724269806
 31
0.0
 70
    32
  1
<>
 71
     5
 42
-1.0
 53
90.0
  3
ME10_DIM_14
100
AcDbAlignedDimension
 13
495.5541841468941
 23
160.8469724269806
 33
0.0
 14
497.5541841468941
 24
149.3469724269806
 34
0.0
 50
90.0
100
AcDbRotatedDimension
  0
DIMENSION
  5
331
330
1F
100
AcDbEntity
  8
1
100
AcDbDimension
  2
*D7
 10
404.5541841468941
 20
109.3469724269806
 30
0.0
 11
451.0541841468941
 21
116.3469724269806
 31
0.0
 70
    32
  1
<>
 71
     5
 42
-1.0
 53
0.00013888888889
  3
ME10_DIM_15
100
AcDbAlignedDimension
 13
497.5541841468941
 23
149.3469724269806
 33
0.0
 14
404.5541841468941
 24
149.3469724269806
 34
0.0
100
AcDbRotatedDimension
  0
DIMENSION
  5
33C
330
1F
100
AcDbEntity
  8
1
100
AcDbDimension
  2
*D8
 10
191.154184147854
 20
109.3469724269806
 30
0.0
 11
274.904184147854
 21
116.6469724269806
 31
0.0
 70
    32
  1
<>
 71
     5
 42
-1.0
 53
0.00013888888889
  3
ME10_DIM_16
100
AcDbAlignedDimension
 13
358.654184147854
 23
149.3469724269806
 33
0.0
 14
191.154184147854
 24
149.3469724269806
 34
0.0
100
AcDbRotatedDimension
  0
DIMENSION
  5
347
330
1F
100
AcDbEntity
  8
1
100
AcDbDimension
  2
*D9
 10
38.99146532338015
 20
323.3347746807536
 30
0.0
 11
31.99146532338015
 21
260.8347746807536
 31
0.0
 70
    32
  1
<>
 71
     5
 42
-1.0
 53
90.0
  3
ME10_DIM_17
100
AcDbAlignedDimension
 13
58.99146532338013
 23
198.3347746807536
 33
0.0
 14
58.99146532338015
 24
323.3347746807536
 34
0.0
 50
90.0
100
AcDbRotatedDimension
  0
DIMENSION
  5
352
330
1F
100
AcDbEntity
  8
1
100
AcDbDimension
  2
*D10
 10
58.99146532338014
 20
173.3347746807536
 30
0.0
 11
99.49146532338014
 21
180.3347746807536
 31
0.0
 70
    32
  1
<>
 71
     5
 42
-1.0
 53
0.00013888888889
  3
ME10_DIM_18
100
AcDbAlignedDimension
 13
139.9914653233801
 23
198.3347746807536
 33
0.0
 14
58.99146532338013
 24
198.3347746807536
 34
0.0
100
AcDbRotatedDimension
  0
DIMENSION
  5
35D
330
1F
100
AcDbEntity
  8
1
100
AcDbDimension
  2
*D11
 10
416.0541841468941
 20
129.3469724269806
 30
0.0
 11
451.0541841468941
 21
136.3469724269806
 31
0.0
 70
    32
  1
<>
 71
     5
 42
-1.0
 53
0.00013888888889
  3
ME10_DIM_19
100
AcDbAlignedDimension
 13
486.0541841468941
 23
146.3469724269806
 33
0.0
 14
416.0541841468941
 24
146.3469724269806
 34
0.0
100
AcDbRotatedDimension
  0
DIMENSION
  5
368
330
1F
100
AcDbEntity
  8
1
100
AcDbDimension
  2
*D12
 10
200.904184147854
 20
129.3469724269806
 30
0.0
 11
274.904184147854
 21
136.3469724269806
 31
0.0
 70
    32
  1
<>
 71
     5
 42
-1.0
 53
0.00013888888889
  3
ME10_DIM_20
100
AcDbAlignedDimension
 13
348.904184147854
 23
146.3469724269806
 33
0.0
 14
200.904184147854
 24
146.3469724269806
 34
0.0
100
AcDbRotatedDimension
  0
INSERT
  5
371
330
1F
100
AcDbEntity
  8
1
100
AcDbBlockReference
  2
*D13
 10
0.0
 20
0.0
 30
0.0
  0
ENDSEC
  0
SECTION
  2
OBJECTS
  0
DICTIONARY
  5
C
330
0
100
AcDbDictionary
281
     1
  3
ACAD_GROUP
350
D
  3
ACAD_LAYOUT
350
1A
  3
ACAD_MATERIAL
350
3B
  3
ACAD_MLEADERSTYLE
350
374
  3
ACAD_MLINESTYLE
350
17
  3
ACAD_PLOTSETTINGS
350
19
  3
ACAD_PLOTSTYLENAME
350
E
  3
ACAD_VISUALSTYLE
350
2A
  3
AcDbVariableDictionary
350
372
  0
DICTIONARY
  5
D
102
{ACAD_REACTORS
330
C
102
}
330
C
100
AcDbDictionary
281
     1
  0
DICTIONARY
  5
1A
102
{ACAD_REACTORS
330
C
102
}
330
C
100
AcDbDictionary
281
     1
  3
Layout1
350
1E
  3
Layout2
350
26
  3
Model
350
22
  0
DICTIONARY
  5
3B
102
{ACAD_REACTORS
330
C
102
}
330
C
100
AcDbDictionary
281
     1
  3
ByBlock
350
3D
  3
ByLayer
350
3C
  3
Global
350
3E
  0
DICTIONARY
  5
374
102
{ACAD_REACTORS
330
C
102
}
330
C
100
AcDbDictionary
281
     1
  0
DICTIONARY
  5
17
102
{ACAD_REACTORS
330
C
102
}
330
C
100
AcDbDictionary
281
     1
  3
Standard
350
18
  0
DICTIONARY
  5
19
102
{ACAD_REACTORS
330
C
102
}
330
C
100
AcDbDictionary
281
     1
  0
ACDBDICTIONARYWDFLT
  5
E
102
{ACAD_REACTORS
330
C
102
}
330
C
100
AcDbDictionary
281
     1
  3
Normal
350
F
100
AcDbDictionaryWithDefault
340
F
  0
DICTIONARY
  5
2A
102
{ACAD_REACTORS
330
C
102
}
330
C
100
AcDbDictionary
281
     1
  3
2dWireframe
350
2F
  3
3D Hidden
350
31
  3
3dWireframe
350
30
  3
Basic
350
32
  3
Brighten
350
36
  3
ColorChange
350
3A
  3
Conceptual
350
34
  3
Dim
350
35
  3
Facepattern
350
39
  3
Flat
350
2B
  3
FlatWithEdges
350
2C
  3
Gouraud
350
2D
  3
GouraudWithEdges
350
2E
  3
Linepattern
350
38
  3
Realistic
350
33
  3
Thicken
350
37
  0
DICTIONARY
  5
372
102
{ACAD_REACTORS
330
C
102
}
330
C
100
AcDbDictionary
281
     1
  3
DIMASSOC
350
375
  3
HIDETEXT
350
376
  0
LAYOUT
  5
1E
102
{ACAD_REACTORS
330
1A
102
}
330
1A
100
AcDbPlotSettings
  1

  2
none_device
  4

  6

 40
0.0
 41
0.0
 42
0.0
 43
0.0
 44
0.0
 45
0.0
 46
0.0
 47
0.0
 48
0.0
 49
0.0
140
0.0
141
0.0
142
1.0
143
1.0
 70
   688
 72
     0
 73
     0
 74
     5
  7

 75
    16
147
1.0
148
0.0
149
0.0
100
AcDbLayout
  1
Layout1
 70
     1
 71
     1
 10
0.0
 20
0.0
 11
12.0
 21
9.0
 12
0.0
 22
0.0
 32
0.0
 14
1.00000000000000E+20
 24
1.00000000000000E+20
 34
1.00000000000000E+20
 15
-1.00000000000000E+20
 25
-1.00000000000000E+20
 35
-1.00000000000000E+20
146
0.0
 13
0.0
 23
0.0
 33
0.0
 16
1.0
 26
0.0
 36
0.0
 17
0.0
 27
1.0
 37
0.0
 76
     0
330
1B
  0
LAYOUT
  5
26
102
{ACAD_REACTORS
330
1A
102
}
330
1A
100
AcDbPlotSettings
  1

  2
none_device
  4

  6

 40
0.0
 41
0.0
 42
0.0
 43
0.0
 44
0.0
 45
0.0
 46
0.0
 47
0.0
 48
0.0
 49
0.0
140
0.0
141
0.0
142
1.0
143
1.0
 70
   688
 72
     0
 73
     0
 74
     5
  7

 75
    16
147
1.0
148
0.0
149
0.0
100
AcDbLayout
  1
Layout2
 70
     1
 71
     2
 10
0.0
 20
0.0
 11
0.0
 21
0.0
 12
0.0
 22
0.0
 32
0.0
 14
0.0
 24
0.0
 34
0.0
 15
0.0
 25
0.0
 35
0.0
146
0.0
 13
0.0
 23
0.0
 33
0.0
 16
1.0
 26
0.0
 36
0.0
 17
0.0
 27
1.0
 37
0.0
 76
     0
330
23
  0
LAYOUT
  5
22
102
{ACAD_REACTORS
330
1A
102
}
330
1A
100
AcDbPlotSettings
  1

  2
none_device
  4

  6

 40
0.0
 41
0.0
 42
0.0
 43
0.0
 44
0.0
 45
0.0
 46
0.0
 47
0.0
 48
0.0
 49
0.0
140
0.0
141
0.0
142
1.0
143
1.0
 70
  1712
 72
     0
 73
     0
 74
     0
  7

 75
     0
147
1.0
148
0.0
149
0.0
100
AcDbLayout
  1
Model
 70
     1
 71
     0
 10
0.0
 20
0.0
 11
12.0
 21
9.0
 12
0.0
 22
0.0
 32
0.0
 14
0.0
 24
0.0
 34
0.0
 15
594.0000000000002
 25
420.0000000000002
 35
0.0
146
0.0
 13
0.0
 23
0.0
 33
0.0
 16
1.0
 26
0.0
 36
0.0
 17
0.0
 27
1.0
 37
0.0
 76
     0
330
1F
331
29
  0
MATERIAL
  5
3D
102
{ACAD_REACTORS
330
3B
102
}
102
{ACAD_XDICTIONARY
360
399
102
}
330
3B
100
AcDbMaterial
  1
ByBlock
  0
MATERIAL
  5
3C
102
{ACAD_REACTORS
330
3B
102
}
102
{ACAD_XDICTIONARY
360
397
102
}
330
3B
100
AcDbMaterial
  1
ByLayer
  0
MATERIAL
  5
3E
102
{ACAD_REACTORS
330
3B
102
}
102
{ACAD_XDICTIONARY
360
39B
102
}
330
3B
100
AcDbMaterial
  1
Global
  0
MLINESTYLE
  5
18
102
{ACAD_REACTORS
330
17
102
}
330
17
100
AcDbMlineStyle
  2
Standard
 70
     0
  3

 62
   256
 51
90.0
 52
90.0
 71
     2
 49
0.5
 62
   256
  6
BYLAYER
 49
-0.5
 62
   256
  6
BYLAYER
  0
ACDBPLACEHOLDER
  5
F
102
{ACAD_REACTORS
330
E
102
}
330
E
  0
VISUALSTYLE
  5
2F
102
{ACAD_REACTORS
330
2A
102
}
102
{ACAD_XDICTIONARY
360
37F
102
}
330
2A
100
AcDbVisualStyle
  2
2dWireframe
 70
     4
 71
     0
 72
     2
 73
     0
 90
        0
 40
-0.6
 41
-30.0
 62
     5
 63
     7
 74
     1
 91
        4
 64
     7
 65
   257
 75
     1
175
     1
 42
1.0
 92
        0
 66
   257
 43
1.0
 76
     1
 77
     6
 78
     2
 67
     7
 79
     5
170
     0
171
     0
290
     0
174
     0
 93
        1
 44
0.0
173
     0
291
     0
 45
0.0
1001
ACAD
1000
AcDbSavedByObjectVersion
1070
     0
  0
VISUALSTYLE
  5
31
102
{ACAD_REACTORS
330
2A
102
}
102
{ACAD_XDICTIONARY
360
383
102
}
330
2A
100
AcDbVisualStyle
  2
3D Hidden
 70
     6
 71
     1
 72
     2
 73
     2
 90
        0
 40
-0.6
 41
-30.0
 62
     5
 63
     7
 74
     2
 91
        2
 64
     7
 65
   257
 75
     2
175
     1
 42
40.0
 92
        0
 66
   257
 43
1.0
 76
     1
 77
     6
 78
     2
 67
     7
 79
     3
170
     0
171
     0
290
     0
174
     0
 93
        1
 44
0.0
173
     0
291
     0
 45
0.0
1001
ACAD
1000
AcDbSavedByObjectVersion
1070
     0
  0
VISUALSTYLE
  5
30
102
{ACAD_REACTORS
330
2A
102
}
102
{ACAD_XDICTIONARY
360
381
102
}
330
2A
100
AcDbVisualStyle
  2
3dWireframe
 70
     5
 71
     0
 72
     2
 73
     0
 90
        0
 40
-0.6
 41
-30.0
 62
     5
 63
     7
 74
     1
 91
        4
 64
     7
 65
   257
 75
     1
175
     1
 42
1.0
 92
        0
 66
   257
 43
1.0
 76
     1
 77
     6
 78
     2
 67
     7
 79
     5
170
     0
171
     0
290
     0
174
     0
 93
        1
 44
0.0
173
     0
291
     0
 45
0.0
1001
ACAD
1000
AcDbSavedByObjectVersion
1070
     0
  0
VISUALSTYLE
  5
32
102
{ACAD_REACTORS
330
2A
102
}
102
{ACAD_XDICTIONARY
360
385
102
}
330
2A
100
AcDbVisualStyle
  2
Basic
 70
     7
 71
     1
 72
     0
 73
     1
 90
        0
 40
-0.6
 41
-30.0
 62
     5
 63
     7
 74
     0
 91
        4
 64
     7
 65
   257
 75
     1
175
     1
 42
1.0
 92
        8
 66
     7
 43
1.0
 76
     1
 77
     6
 78
     2
 67
     7
 79
     5
170
     0
171
     0
290
     0
174
     0
 93
        1
 44
0.0
173
     0
291
     1
 45
0.0
1001
ACAD
1000
AcDbSavedByObjectVersion
1070
     0
  0
VISUALSTYLE
  5
36
102
{ACAD_REACTORS
330
2A
102
}
102
{ACAD_XDICTIONARY
360
38D
102
}
330
2A
100
AcDbVisualStyle
  2
Brighten
 70
    12
 71
     2
 72
     2
 73
     0
 90
        0
 40
-0.6
 41
-30.0
 62
     5
 63
     7
 74
     1
 91
        4
 64
     7
 65
   257
 75
     1
175
     1
 42
1.0
 92
        8
 66
     7
 43
1.0
 76
     1
 77
     6
 78
     2
 67
     7
 79
     5
170
     0
171
     0
290
     0
174
     0
 93
        1
 44
50.0
173
     0
291
     1
 45
0.0
1001
ACAD
1000
AcDbSavedByObjectVersion
1070
     0
  0
VISUALSTYLE
  5
3A
102
{ACAD_REACTORS
330
2A
102
}
102
{ACAD_XDICTIONARY
360
395
102
}
330
2A
100
AcDbVisualStyle
  2
ColorChange
 70
    16
 71
     2
 72
     2
 73
     3
 90
        0
 40
-0.6
 41
-30.0
 62
     5
 63
     8
 74
     1
 91
        4
 64
     7
 65
   257
 75
     1
175
     1
 42
1.0
 92
        8
 66
     8
 43
1.0
 76
     1
 77
     6
 78
     2
 67
     7
 79
     5
170
     0
171
     0
290
     0
174
     0
 93
        1
 44
0.0
173
     0
291
     1
 45
0.0
1001
ACAD
1000
AcDbSavedByObjectVersion
1070
     0
  0
VISUALSTYLE
  5
34
102
{ACAD_REACTORS
330
2A
102
}
102
{ACAD_XDICTIONARY
360
389
102
}
330
2A
100
AcDbVisualStyle
  2
Conceptual
 70
     9
 71
     3
 72
     2
 73
     0
 90
        0
 40
-0.6
 41
-30.0
 62
     5
 63
     7
 74
     2
 91
        2
 64
     7
 65
   257
 75
     1
175
     1
 42
40.0
 92
        8
 66
     7
 43
1.0
 76
     1
 77
     6
 78
     2
 67
     7
 79
     3
170
     0
171
     0
290
     0
174
     0
 93
        1
 44
0.0
173
     0
291
     0
 45
0.0
1001
ACAD
1000
AcDbSavedByObjectVersion
1070
     0
  0
VISUALSTYLE
  5
35
102
{ACAD_REACTORS
330
2A
102
}
102
{ACAD_XDICTIONARY
360
38B
102
}
330
2A
100
AcDbVisualStyle
  2
Dim
 70
    11
 71
     2
 72
     2
 73
     0
 90
        0
 40
-0.6
 41
-30.0
 62
     5
 63
     7
 74
     1
 91
        4
 64
     7
 65
   257
 75
     1
175
     1
 42
1.0
 92
        8
 66
     7
 43
1.0
 76
     1
 77
     6
 78
     2
 67
     7
 79
     5
170
     0
171
     0
290
     0
174
     0
 93
        1
 44
-50.0
173
     0
291
     1
 45
0.0
1001
ACAD
1000
AcDbSavedByObjectVersion
1070
     0
  0
VISUALSTYLE
  5
39
102
{ACAD_REACTORS
330
2A
102
}
102
{ACAD_XDICTIONARY
360
393
102
}
330
2A
100
AcDbVisualStyle
  2
Facepattern
 70
    15
 71
     2
 72
     2
 73
     0
 90
        0
 40
-0.6
 41
-30.0
 62
     5
 63
     7
 74
     1
 91
        4
 64
     7
 65
   257
 75
     1
175
     1
 42
1.0
 92
        8
 66
     7
 43
1.0
 76
     1
 77
     6
 78
     2
 67
     7
 79
     5
170
     0
171
     0
290
     0
174
     0
 93
        1
 44
0.0
173
     0
291
     1
 45
0.0
1001
ACAD
1000
AcDbSavedByObjectVersion
1070
     0
  0
VISUALSTYLE
  5
2B
102
{ACAD_REACTORS
330
2A
102
}
102
{ACAD_XDICTIONARY
360
377
102
}
330
2A
100
AcDbVisualStyle
  2
Flat
 70
     0
 71
     2
 72
     1
 73
     1
 90
        2
 40
-0.6
 41
30.0
 62
     5
 63
     7
 74
     0
 91
        4
 64
     7
 65
   257
 75
     1
175
     1
 42
1.0
 92
        8
 66
     7
 43
1.0
 76
     1
 77
     6
 78
     2
 67
     7
 79
     5
170
     0
171
     0
290
     0
174
     0
 93
       13
 44
0.0
173
     0
291
     1
 45
0.0
1001
ACAD
1000
AcDbSavedByObjectVersion
1070
     0
  0
VISUALSTYLE
  5
2C
102
{ACAD_REACTORS
330
2A
102
}
102
{ACAD_XDICTIONARY
360
379
102
}
330
2A
100
AcDbVisualStyle
  2
FlatWithEdges
 70
     1
 71
     2
 72
     1
 73
     1
 90
        2
 40
-0.6
 41
30.0
 62
     5
 63
     7
 74
     1
 91
        4
 64
     7
 65
   257
 75
     1
175
     1
 42
1.0
 92
        0
 66
   257
 43
1.0
 76
     1
 77
     6
 78
     2
 67
     7
 79
     5
170
     0
171
     0
290
     0
174
     0
 93
       13
 44
0.0
173
     0
291
     1
 45
0.0
1001
ACAD
1000
AcDbSavedByObjectVersion
1070
     0
  0
VISUALSTYLE
  5
2D
102
{ACAD_REACTORS
330
2A
102
}
102
{ACAD_XDICTIONARY
360
37B
102
}
330
2A
100
AcDbVisualStyle
  2
Gouraud
 70
     2
 71
     2
 72
     2
 73
     1
 90
        2
 40
-0.6
 41
30.0
 62
     5
 63
     7
 74
     0
 91
        4
 64
     7
 65
   257
 75
     1
175
     1
 42
1.0
 92
        0
 66
     7
 43
1.0
 76
     1
 77
     6
 78
     2
 67
     7
 79
     5
170
     0
171
     0
290
     0
174
     0
 93
       13
 44
0.0
173
     0
291
     1
 45
0.0
1001
ACAD
1000
AcDbSavedByObjectVersion
1070
     0
  0
VISUALSTYLE
  5
2E
102
{ACAD_REACTORS
330
2A
102
}
102
{ACAD_XDICTIONARY
360
37D
102
}
330
2A
100
AcDbVisualStyle
  2
GouraudWithEdges
 70
     3
 71
     2
 72
     2
 73
     1
 90
        2
 40
-0.6
 41
30.0
 62
     5
 63
     7
 74
     1
 91
        4
 64
     7
 65
   257
 75
     1
175
     1
 42
1.0
 92
        0
 66
   257
 43
1.0
 76
     1
 77
     6
 78
     2
 67
     7
 79
     5
170
     0
171
     0
290
     0
174
     0
 93
       13
 44
0.0
173
     0
291
     1
 45
0.0
1001
ACAD
1000
AcDbSavedByObjectVersion
1070
     0
  0
VISUALSTYLE
  5
38
102
{ACAD_REACTORS
330
2A
102
}
102
{ACAD_XDICTIONARY
360
391
102
}
330
2A
100
AcDbVisualStyle
  2
Linepattern
 70
    14
 71
     2
 72
     2
 73
     0
 90
        0
 40
-0.6
 41
-30.0
 62
     5
 63
     7
 74
     1
 91
        4
 64
     7
 65
   257
 75
     7
175
     7
 42
1.0
 92
        8
 66
     7
 43
1.0
 76
     1
 77
     6
 78
     2
 67
     7
 79
     5
170
     0
171
     0
290
     0
174
     0
 93
        1
 44
0.0
173
     0
291
     1
 45
0.0
1001
ACAD
1000
AcDbSavedByObjectVersion
1070
     0
  0
VISUALSTYLE
  5
33
102
{ACAD_REACTORS
330
2A
102
}
102
{ACAD_XDICTIONARY
360
387
102
}
330
2A
100
AcDbVisualStyle
  2
Realistic
 70
     8
 71
     2
 72
     2
 73
     0
 90
        0
 40
-0.6
 41
-30.0
 62
     5
 63
     7
 74
     1
 91
        0
 64
     7
 65
   257
 75
     1
175
     1
 42
1.0
 92
        8
 66
     8
 43
1.0
 76
     1
 77
     6
 78
     2
 67
     7
 79
     5
170
     0
171
     0
290
     0
174
     0
 93
       13
 44
0.0
173
     0
291
     0
 45
0.0
1001
ACAD
1000
AcDbSavedByObjectVersion
1070
     0
  0
VISUALSTYLE
  5
37
102
{ACAD_REACTORS
330
2A
102
}
102
{ACAD_XDICTIONARY
360
38F
102
}
330
2A
100
AcDbVisualStyle
  2
Thicken
 70
    13
 71
     2
 72
     2
 73
     0
 90
        0
 40
-0.6
 41
-30.0
 62
     5
 63
     7
 74
     1
 91
        4
 64
     7
 65
   257
 75
     1
175
     1
 42
1.0
 92
       12
 66
     7
 43
1.0
 76
     1
 77
     6
 78
     2
 67
     7
 79
     5
170
     0
171
     0
290
     0
174
     0
 93
        1
 44
0.0
173
     0
291
     1
 45
0.0
1001
ACAD
1000
AcDbSavedByObjectVersion
1070
     0
  0
DICTIONARYVAR
  5
375
102
{ACAD_REACTORS
330
372
102
}
330
372
100
DictionaryVariables
280
     0
  1
2
  0
DICTIONARYVAR
  5
376
102
{ACAD_REACTORS
330
372
102
}
330
372
100
DictionaryVariables
280
     0
  1
1
  0
DICTIONARY
  5
399
330
3D
100
AcDbDictionary
280
     1
281
     1
  3
ACAD_XREC_ROUNDTRIP
360
39A
  0
DICTIONARY
  5
397
330
3C
100
AcDbDictionary
280
     1
281
     1
  3
ACAD_XREC_ROUNDTRIP
360
398
  0
DICTIONARY
  5
39B
330
3E
100
AcDbDictionary
280
     1
281
     1
  3
ACAD_XREC_ROUNDTRIP
360
39C
  0
DICTIONARY
  5
37F
330
2F
100
AcDbDictionary
280
     1
281
     1
  3
ACAD_XREC_ROUNDTRIP
360
380
  0
DICTIONARY
  5
383
330
31
100
AcDbDictionary
280
     1
281
     1
  3
ACAD_XREC_ROUNDTRIP
360
384
  0
DICTIONARY
  5
381
330
30
100
AcDbDictionary
280
     1
281
     1
  3
ACAD_XREC_ROUNDTRIP
360
382
  0
DICTIONARY
  5
385
330
32
100
AcDbDictionary
280
     1
281
     1
  3
ACAD_XREC_ROUNDTRIP
360
386
  0
DICTIONARY
  5
38D
330
36
100
AcDbDictionary
280
     1
281
     1
  3
ACAD_XREC_ROUNDTRIP
360
38E
  0
DICTIONARY
  5
395
330
3A
100
AcDbDictionary
280
     1
281
     1
  3
ACAD_XREC_ROUNDTRIP
360
396
  0
DICTIONARY
  5
389
330
34
100
AcDbDictionary
280
     1
281
     1
  3
ACAD_XREC_ROUNDTRIP
360
38A
  0
DICTIONARY
  5
38B
330
35
100
AcDbDictionary
280
     1
281
     1
  3
ACAD_XREC_ROUNDTRIP
360
38C
  0
DICTIONARY
  5
393
330
39
100
AcDbDictionary
280
     1
281
     1
  3
ACAD_XREC_ROUNDTRIP
360
394
  0
DICTIONARY
  5
377
330
2B
100
AcDbDictionary
280
     1
281
     1
  3
ACAD_XREC_ROUNDTRIP
360
378
  0
DICTIONARY
  5
379
330
2C
100
AcDbDictionary
280
     1
281
     1
  3
ACAD_XREC_ROUNDTRIP
360
37A
  0
DICTIONARY
  5
37B
330
2D
100
AcDbDictionary
280
     1
281
     1
  3
ACAD_XREC_ROUNDTRIP
360
37C
  0
DICTIONARY
  5
37D
330
2E
100
AcDbDictionary
280
     1
281
     1
  3
ACAD_XREC_ROUNDTRIP
360
37E
  0
DICTIONARY
  5
391
330
38
100
AcDbDictionary
280
     1
281
     1
  3
ACAD_XREC_ROUNDTRIP
360
392
  0
DICTIONARY
  5
387
330
33
100
AcDbDictionary
280
     1
281
     1
  3
ACAD_XREC_ROUNDTRIP
360
388
  0
DICTIONARY
  5
38F
330
37
100
AcDbDictionary
280
     1
281
     1
  3
ACAD_XREC_ROUNDTRIP
360
390
  0
XRECORD
  5
39A
102
{ACAD_REACTORS
330
399
102
}
330
399
100
AcDbXrecord
280
     1
102
MATERIAL
148
0.0
149
0.0
149
0.0
 93
        0
 94
      127
282
     0
 72
     1
 77
     1
171
     1
175
     1
179
     1
273
     0
  0
XRECORD
  5
398
102
{ACAD_REACTORS
330
397
102
}
330
397
100
AcDbXrecord
280
     1
102
MATERIAL
148
0.0
149
0.0
149
0.0
 93
        0
 94
      127
282
     0
 72
     1
 77
     1
171
     1
175
     1
179
     1
273
     0
  0
XRECORD
  5
39C
102
{ACAD_REACTORS
330
39B
102
}
330
39B
100
AcDbXrecord
280
     1
102
MATERIAL
148
0.0
149
0.0
149
0.0
 93
        0
 94
      127
282
     0
 72
     1
 77
     1
171
     1
175
     1
179
     1
273
     0
  0
XRECORD
  5
380
102
{ACAD_REACTORS
330
37F
102
}
330
37F
100
AcDbXrecord
280
     1
102
RTVSPropertyOp0
 70
     1
102
RTVSPropertyOp1
 70
     1
102
RTVSPropertyOp2
 70
     1
102
RTVSPropertyOp3
 70
     1
102
RTVSPropertyOp4
 70
     1
102
RTVSPropertyOp5
 70
     1
102
RTVSPropertyOp6
 70
     1
102
RTVSPropertyOp7
 70
     1
102
RTVSPropertyOp8
 70
     1
102
RTVSPropertyOp9
 70
     1
102
RTVSPropertyOp10
 70
     1
102
RTVSPropertyOp11
 70
     1
102
RTVSPropertyOp12
 70
     1
102
RTVSPropertyOp13
 70
     1
102
RTVSPropertyOp14
 70
     1
102
RTVSPropertyOp15
 70
     1
102
RTVSPropertyOp16
 70
     1
102
RTVSPropertyOp17
 70
     1
102
RTVSPropertyOp18
 70
     1
102
RTVSPropertyOp19
 70
     1
102
RTVSPropertyOp20
 70
     1
102
RTVSPropertyOp21
 70
     1
102
RTVSPropertyOp22
 70
     1
102
RTVSPropertyOp23
 70
     1
102
RTVSPropertyOp24
 70
     1
102
RTVSPropertyOp25
 70
     1
102
RTVSPropertyOp26
 70
     1
102
RTVSPropertyOp27
 70
     1
102
RTVSPropertyOp28
 70
     1
102
RTVSPropertyOp29
 70
     1
102
RTVSPropertyOp30
 70
     1
102
RTVSPropertyOp31
 70
     1
102
RTVSPropertyOp32
 70
     1
  0
XRECORD
  5
384
102
{ACAD_REACTORS
330
383
102
}
330
383
100
AcDbXrecord
280
     1
102
RTVSPropertyOp0
 70
     1
102
RTVSPropertyOp1
 70
     1
102
RTVSPropertyOp2
 70
     1
102
RTVSPropertyOp3
 70
     1
102
RTVSPropertyOp4
 70
     1
102
RTVSPropertyOp5
 70
     1
102
RTVSPropertyOp6
 70
     1
102
RTVSPropertyOp7
 70
     1
102
RTVSPropertyOp8
 70
     1
102
RTVSPropertyOp9
 70
     1
102
RTVSPropertyOp10
 70
     1
102
RTVSPropertyOp11
 70
     1
102
RTVSPropertyOp12
 70
     1
102
RTVSPropertyOp13
 70
     1
102
RTVSPropertyOp14
 70
     1
102
RTVSPropertyOp15
 70
     1
102
RTVSPropertyOp16
 70
     1
102
RTVSPropertyOp17
 70
     1
102
RTVSPropertyOp18
 70
     1
102
RTVSPropertyOp19
 70
     1
102
RTVSPropertyOp20
 70
     1
102
RTVSPropertyOp21
 70
     1
102
RTVSPropertyOp22
 70
     1
102
RTVSPropertyOp23
 70
     1
102
RTVSPropertyOp24
 70
     1
102
RTVSPropertyOp25
 70
     1
102
RTVSPropertyOp26
 70
     1
102
RTVSPropertyOp27
 70
     1
102
RTVSPropertyOp28
 70
     1
102
RTVSPropertyOp29
 70
     1
102
RTVSPropertyOp30
 70
     1
102
RTVSPropertyOp31
 70
     1
102
RTVSPropertyOp32
 70
     1
  0
XRECORD
  5
382
102
{ACAD_REACTORS
330
381
102
}
330
381
100
AcDbXrecord
280
     1
102
RTVSPropertyOp0
 70
     1
102
RTVSPropertyOp1
 70
     1
102
RTVSPropertyOp2
 70
     1
102
RTVSPropertyOp3
 70
     1
102
RTVSPropertyOp4
 70
     1
102
RTVSPropertyOp5
 70
     1
102
RTVSPropertyOp6
 70
     1
102
RTVSPropertyOp7
 70
     1
102
RTVSPropertyOp8
 70
     1
102
RTVSPropertyOp9
 70
     1
102
RTVSPropertyOp10
 70
     1
102
RTVSPropertyOp11
 70
     1
102
RTVSPropertyOp12
 70
     1
102
RTVSPropertyOp13
 70
     1
102
RTVSPropertyOp14
 70
     1
102
RTVSPropertyOp15
 70
     1
102
RTVSPropertyOp16
 70
     1
102
RTVSPropertyOp17
 70
     1
102
RTVSPropertyOp18
 70
     1
102
RTVSPropertyOp19
 70
     1
102
RTVSPropertyOp20
 70
     1
102
RTVSPropertyOp21
 70
     1
102
RTVSPropertyOp22
 70
     1
102
RTVSPropertyOp23
 70
     1
102
RTVSPropertyOp24
 70
     1
102
RTVSPropertyOp25
 70
     1
102
RTVSPropertyOp26
 70
     1
102
RTVSPropertyOp27
 70
     1
102
RTVSPropertyOp28
 70
     1
102
RTVSPropertyOp29
 70
     1
102
RTVSPropertyOp30
 70
     1
102
RTVSPropertyOp31
 70
     1
102
RTVSPropertyOp32
 70
     1
  0
XRECORD
  5
386
102
{ACAD_REACTORS
330
385
102
}
330
385
100
AcDbXrecord
280
     1
102
RTVSPropertyOp0
 70
     1
102
RTVSPropertyOp1
 70
     1
102
RTVSPropertyOp2
 70
     1
102
RTVSPropertyOp3
 70
     1
102
RTVSPropertyOp4
 70
     1
102
RTVSPropertyOp5
 70
     1
102
RTVSPropertyOp6
 70
     1
102
RTVSPropertyOp7
 70
     1
102
RTVSPropertyOp8
 70
     1
102
RTVSPropertyOp9
 70
     1
102
RTVSPropertyOp10
 70
     1
102
RTVSPropertyOp11
 70
     1
102
RTVSPropertyOp12
 70
     1
102
RTVSPropertyOp13
 70
     1
102
RTVSPropertyOp14
 70
     1
102
RTVSPropertyOp15
 70
     1
102
RTVSPropertyOp16
 70
     1
102
RTVSPropertyOp17
 70
     1
102
RTVSPropertyOp18
 70
     1
102
RTVSPropertyOp19
 70
     1
102
RTVSPropertyOp20
 70
     1
102
RTVSPropertyOp21
 70
     1
102
RTVSPropertyOp22
 70
     1
102
RTVSPropertyOp23
 70
     1
102
RTVSPropertyOp24
 70
     1
102
RTVSPropertyOp25
 70
     1
102
RTVSPropertyOp26
 70
     1
102
RTVSPropertyOp27
 70
     1
102
RTVSPropertyOp28
 70
     1
102
RTVSPropertyOp29
 70
     1
102
RTVSPropertyOp30
 70
     1
102
RTVSPropertyOp31
 70
     1
102
RTVSPropertyOp32
 70
     1
  0
XRECORD
  5
38E
102
{ACAD_REACTORS
330
38D
102
}
330
38D
100
AcDbXrecord
280
     1
102
RTVSPropertyOp0
 70
     1
102
RTVSPropertyOp1
 70
     1
102
RTVSPropertyOp2
 70
     1
102
RTVSPropertyOp3
 70
     1
102
RTVSPropertyOp4
 70
     1
102
RTVSPropertyOp5
 70
     1
102
RTVSPropertyOp6
 70
     1
102
RTVSPropertyOp7
 70
     1
102
RTVSPropertyOp8
 70
     1
102
RTVSPropertyOp9
 70
     1
102
RTVSPropertyOp10
 70
     1
102
RTVSPropertyOp11
 70
     1
102
RTVSPropertyOp12
 70
     1
102
RTVSPropertyOp13
 70
     1
102
RTVSPropertyOp14
 70
     1
102
RTVSPropertyOp15
 70
     1
102
RTVSPropertyOp16
 70
     1
102
RTVSPropertyOp17
 70
     1
102
RTVSPropertyOp18
 70
     1
102
RTVSPropertyOp19
 70
     1
102
RTVSPropertyOp20
 70
     1
102
RTVSPropertyOp21
 70
     1
102
RTVSPropertyOp22
 70
     1
102
RTVSPropertyOp23
 70
     1
102
RTVSPropertyOp24
 70
     1
102
RTVSPropertyOp25
 70
     1
102
RTVSPropertyOp26
 70
     1
102
RTVSPropertyOp27
 70
     1
102
RTVSPropertyOp28
 70
     1
102
RTVSPropertyOp29
 70
     1
102
RTVSPropertyOp30
 70
     1
102
RTVSPropertyOp31
 70
     1
102
RTVSPropertyOp32
 70
     1
  0
XRECORD
  5
396
102
{ACAD_REACTORS
330
395
102
}
330
395
100
AcDbXrecord
280
     1
102
RTVSPropertyOp0
 70
     1
102
RTVSPropertyOp1
 70
     1
102
RTVSPropertyOp2
 70
     1
102
RTVSPropertyOp3
 70
     1
102
RTVSPropertyOp4
 70
     1
102
RTVSPropertyOp5
 70
     1
102
RTVSPropertyOp6
 70
     1
102
RTVSPropertyOp7
 70
     1
102
RTVSPropertyOp8
 70
     1
102
RTVSPropertyOp9
 70
     1
102
RTVSPropertyOp10
 70
     1
102
RTVSPropertyOp11
 70
     1
102
RTVSPropertyOp12
 70
     1
102
RTVSPropertyOp13
 70
     1
102
RTVSPropertyOp14
 70
     1
102
RTVSPropertyOp15
 70
     1
102
RTVSPropertyOp16
 70
     1
102
RTVSPropertyOp17
 70
     1
102
RTVSPropertyOp18
 70
     1
102
RTVSPropertyOp19
 70
     1
102
RTVSPropertyOp20
 70
     1
102
RTVSPropertyOp21
 70
     1
102
RTVSPropertyOp22
 70
     1
102
RTVSPropertyOp23
 70
     1
102
RTVSPropertyOp24
 70
     1
102
RTVSPropertyOp25
 70
     1
102
RTVSPropertyOp26
 70
     1
102
RTVSPropertyOp27
 70
     1
102
RTVSPropertyOp28
 70
     1
102
RTVSPropertyOp29
 70
     1
102
RTVSPropertyOp30
 70
     1
102
RTVSPropertyOp31
 70
     1
102
RTVSPropertyOp32
 70
     1
  0
XRECORD
  5
38A
102
{ACAD_REACTORS
330
389
102
}
330
389
100
AcDbXrecord
280
     1
102
RTVSPropertyOp0
 70
     1
102
RTVSPropertyOp1
 70
     1
102
RTVSPropertyOp2
 70
     1
102
RTVSPropertyOp3
 70
     1
102
RTVSPropertyOp4
 70
     1
102
RTVSPropertyOp5
 70
     1
102
RTVSPropertyOp6
 70
     1
102
RTVSPropertyOp7
 70
     1
102
RTVSPropertyOp8
 70
     1
102
RTVSPropertyOp9
 70
     1
102
RTVSPropertyOp10
 70
     1
102
RTVSPropertyOp11
 70
     1
102
RTVSPropertyOp12
 70
     1
102
RTVSPropertyOp13
 70
     1
102
RTVSPropertyOp14
 70
     1
102
RTVSPropertyOp15
 70
     1
102
RTVSPropertyOp16
 70
     1
102
RTVSPropertyOp17
 70
     1
102
RTVSPropertyOp18
 70
     1
102
RTVSPropertyOp19
 70
     1
102
RTVSPropertyOp20
 70
     1
102
RTVSPropertyOp21
 70
     1
102
RTVSPropertyOp22
 70
     1
102
RTVSPropertyOp23
 70
     1
102
RTVSPropertyOp24
 70
     1
102
RTVSPropertyOp25
 70
     1
102
RTVSPropertyOp26
 70
     1
102
RTVSPropertyOp27
 70
     1
102
RTVSPropertyOp28
 70
     1
102
RTVSPropertyOp29
 70
     1
102
RTVSPropertyOp30
 70
     1
102
RTVSPropertyOp31
 70
     1
102
RTVSPropertyOp32
 70
     1
  0
XRECORD
  5
38C
102
{ACAD_REACTORS
330
38B
102
}
330
38B
100
AcDbXrecord
280
     1
102
RTVSPropertyOp0
 70
     1
102
RTVSPropertyOp1
 70
     1
102
RTVSPropertyOp2
 70
     1
102
RTVSPropertyOp3
 70
     1
102
RTVSPropertyOp4
 70
     1
102
RTVSPropertyOp5
 70
     1
102
RTVSPropertyOp6
 70
     1
102
RTVSPropertyOp7
 70
     1
102
RTVSPropertyOp8
 70
     1
102
RTVSPropertyOp9
 70
     1
102
RTVSPropertyOp10
 70
     1
102
RTVSPropertyOp11
 70
     1
102
RTVSPropertyOp12
 70
     1
102
RTVSPropertyOp13
 70
     1
102
RTVSPropertyOp14
 70
     1
102
RTVSPropertyOp15
 70
     1
102
RTVSPropertyOp16
 70
     1
102
RTVSPropertyOp17
 70
     1
102
RTVSPropertyOp18
 70
     1
102
RTVSPropertyOp19
 70
     1
102
RTVSPropertyOp20
 70
     1
102
RTVSPropertyOp21
 70
     1
102
RTVSPropertyOp22
 70
     1
102
RTVSPropertyOp23
 70
     1
102
RTVSPropertyOp24
 70
     1
102
RTVSPropertyOp25
 70
     1
102
RTVSPropertyOp26
 70
     1
102
RTVSPropertyOp27
 70
     1
102
RTVSPropertyOp28
 70
     1
102
RTVSPropertyOp29
 70
     1
102
RTVSPropertyOp30
 70
     1
102
RTVSPropertyOp31
 70
     1
102
RTVSPropertyOp32
 70
     1
  0
XRECORD
  5
394
102
{ACAD_REACTORS
330
393
102
}
330
393
100
AcDbXrecord
280
     1
102
RTVSPropertyOp0
 70
     1
102
RTVSPropertyOp1
 70
     1
102
RTVSPropertyOp2
 70
     1
102
RTVSPropertyOp3
 70
     1
102
RTVSPropertyOp4
 70
     1
102
RTVSPropertyOp5
 70
     1
102
RTVSPropertyOp6
 70
     1
102
RTVSPropertyOp7
 70
     1
102
RTVSPropertyOp8
 70
     1
102
RTVSPropertyOp9
 70
     1
102
RTVSPropertyOp10
 70
     1
102
RTVSPropertyOp11
 70
     1
102
RTVSPropertyOp12
 70
     1
102
RTVSPropertyOp13
 70
     1
102
RTVSPropertyOp14
 70
     1
102
RTVSPropertyOp15
 70
     1
102
RTVSPropertyOp16
 70
     1
102
RTVSPropertyOp17
 70
     1
102
RTVSPropertyOp18
 70
     1
102
RTVSPropertyOp19
 70
     1
102
RTVSPropertyOp20
 70
     1
102
RTVSPropertyOp21
 70
     1
102
RTVSPropertyOp22
 70
     1
102
RTVSPropertyOp23
 70
     1
102
RTVSPropertyOp24
 70
     1
102
RTVSPropertyOp25
 70
     1
102
RTVSPropertyOp26
 70
     1
102
RTVSPropertyOp27
 70
     1
102
RTVSPropertyOp28
 70
     1
102
RTVSPropertyOp29
 70
     1
102
RTVSPropertyOp30
 70
     1
102
RTVSPropertyOp31
 70
     1
102
RTVSPropertyOp32
 70
     1
  0
XRECORD
  5
378
102
{ACAD_REACTORS
330
377
102
}
330
377
100
AcDbXrecord
280
     1
102
RTVSPropertyOp0
 70
     1
102
RTVSPropertyOp1
 70
     1
102
RTVSPropertyOp2
 70
     1
102
RTVSPropertyOp3
 70
     1
102
RTVSPropertyOp4
 70
     1
102
RTVSPropertyOp5
 70
     1
102
RTVSPropertyOp6
 70
     1
102
RTVSPropertyOp7
 70
     1
102
RTVSPropertyOp8
 70
     1
102
RTVSPropertyOp9
 70
     1
102
RTVSPropertyOp10
 70
     1
102
RTVSPropertyOp11
 70
     1
102
RTVSPropertyOp12
 70
     1
102
RTVSPropertyOp13
 70
     1
102
RTVSPropertyOp14
 70
     1
102
RTVSPropertyOp15
 70
     1
102
RTVSPropertyOp16
 70
     1
102
RTVSPropertyOp17
 70
     1
102
RTVSPropertyOp18
 70
     1
102
RTVSPropertyOp19
 70
     1
102
RTVSPropertyOp20
 70
     1
102
RTVSPropertyOp21
 70
     1
102
RTVSPropertyOp22
 70
     1
102
RTVSPropertyOp23
 70
     1
102
RTVSPropertyOp24
 70
     1
102
RTVSPropertyOp25
 70
     1
102
RTVSPropertyOp26
 70
     1
102
RTVSPropertyOp27
 70
     1
102
RTVSPropertyOp28
 70
     1
102
RTVSPropertyOp29
 70
     1
102
RTVSPropertyOp30
 70
     1
102
RTVSPropertyOp31
 70
     1
102
RTVSPropertyOp32
 70
     1
  0
XRECORD
  5
37A
102
{ACAD_REACTORS
330
379
102
}
330
379
100
AcDbXrecord
280
     1
102
RTVSPropertyOp0
 70
     1
102
RTVSPropertyOp1
 70
     1
102
RTVSPropertyOp2
 70
     1
102
RTVSPropertyOp3
 70
     1
102
RTVSPropertyOp4
 70
     1
102
RTVSPropertyOp5
 70
     1
102
RTVSPropertyOp6
 70
     1
102
RTVSPropertyOp7
 70
     1
102
RTVSPropertyOp8
 70
     1
102
RTVSPropertyOp9
 70
     1
102
RTVSPropertyOp10
 70
     1
102
RTVSPropertyOp11
 70
     1
102
RTVSPropertyOp12
 70
     1
102
RTVSPropertyOp13
 70
     1
102
RTVSPropertyOp14
 70
     1
102
RTVSPropertyOp15
 70
     1
102
RTVSPropertyOp16
 70
     1
102
RTVSPropertyOp17
 70
     1
102
RTVSPropertyOp18
 70
     1
102
RTVSPropertyOp19
 70
     1
102
RTVSPropertyOp20
 70
     1
102
RTVSPropertyOp21
 70
     1
102
RTVSPropertyOp22
 70
     1
102
RTVSPropertyOp23
 70
     1
102
RTVSPropertyOp24
 70
     1
102
RTVSPropertyOp25
 70
     1
102
RTVSPropertyOp26
 70
     1
102
RTVSPropertyOp27
 70
     1
102
RTVSPropertyOp28
 70
     1
102
RTVSPropertyOp29
 70
     1
102
RTVSPropertyOp30
 70
     1
102
RTVSPropertyOp31
 70
     1
102
RTVSPropertyOp32
 70
     1
  0
XRECORD
  5
37C
102
{ACAD_REACTORS
330
37B
102
}
330
37B
100
AcDbXrecord
280
     1
102
RTVSPropertyOp0
 70
     1
102
RTVSPropertyOp1
 70
     1
102
RTVSPropertyOp2
 70
     1
102
RTVSPropertyOp3
 70
     1
102
RTVSPropertyOp4
 70
     1
102
RTVSPropertyOp5
 70
     1
102
RTVSPropertyOp6
 70
     1
102
RTVSPropertyOp7
 70
     1
102
RTVSPropertyOp8
 70
     1
102
RTVSPropertyOp9
 70
     1
102
RTVSPropertyOp10
 70
     1
102
RTVSPropertyOp11
 70
     1
102
RTVSPropertyOp12
 70
     1
102
RTVSPropertyOp13
 70
     1
102
RTVSPropertyOp14
 70
     1
102
RTVSPropertyOp15
 70
     1
102
RTVSPropertyOp16
 70
     1
102
RTVSPropertyOp17
 70
     1
102
RTVSPropertyOp18
 70
     1
102
RTVSPropertyOp19
 70
     1
102
RTVSPropertyOp20
 70
     1
102
RTVSPropertyOp21
 70
     1
102
RTVSPropertyOp22
 70
     1
102
RTVSPropertyOp23
 70
     1
102
RTVSPropertyOp24
 70
     1
102
RTVSPropertyOp25
 70
     1
102
RTVSPropertyOp26
 70
     1
102
RTVSPropertyOp27
 70
     1
102
RTVSPropertyOp28
 70
     1
102
RTVSPropertyOp29
 70
     1
102
RTVSPropertyOp30
 70
     1
102
RTVSPropertyOp31
 70
     1
102
RTVSPropertyOp32
 70
     1
  0
XRECORD
  5
37E
102
{ACAD_REACTORS
330
37D
102
}
330
37D
100
AcDbXrecord
280
     1
102
RTVSPropertyOp0
 70
     1
102
RTVSPropertyOp1
 70
     1
102
RTVSPropertyOp2
 70
     1
102
RTVSPropertyOp3
 70
     1
102
RTVSPropertyOp4
 70
     1
102
RTVSPropertyOp5
 70
     1
102
RTVSPropertyOp6
 70
     1
102
RTVSPropertyOp7
 70
     1
102
RTVSPropertyOp8
 70
     1
102
RTVSPropertyOp9
 70
     1
102
RTVSPropertyOp10
 70
     1
102
RTVSPropertyOp11
 70
     1
102
RTVSPropertyOp12
 70
     1
102
RTVSPropertyOp13
 70
     1
102
RTVSPropertyOp14
 70
     1
102
RTVSPropertyOp15
 70
     1
102
RTVSPropertyOp16
 70
     1
102
RTVSPropertyOp17
 70
     1
102
RTVSPropertyOp18
 70
     1
102
RTVSPropertyOp19
 70
     1
102
RTVSPropertyOp20
 70
     1
102
RTVSPropertyOp21
 70
     1
102
RTVSPropertyOp22
 70
     1
102
RTVSPropertyOp23
 70
     1
102
RTVSPropertyOp24
 70
     1
102
RTVSPropertyOp25
 70
     1
102
RTVSPropertyOp26
 70
     1
102
RTVSPropertyOp27
 70
     1
102
RTVSPropertyOp28
 70
     1
102
RTVSPropertyOp29
 70
     1
102
RTVSPropertyOp30
 70
     1
102
RTVSPropertyOp31
 70
     1
102
RTVSPropertyOp32
 70
     1
  0
XRECORD
  5
392
102
{ACAD_REACTORS
330
391
102
}
330
391
100
AcDbXrecord
280
     1
102
RTVSPropertyOp0
 70
     1
102
RTVSPropertyOp1
 70
     1
102
RTVSPropertyOp2
 70
     1
102
RTVSPropertyOp3
 70
     1
102
RTVSPropertyOp4
 70
     1
102
RTVSPropertyOp5
 70
     1
102
RTVSPropertyOp6
 70
     1
102
RTVSPropertyOp7
 70
     1
102
RTVSPropertyOp8
 70
     1
102
RTVSPropertyOp9
 70
     1
102
RTVSPropertyOp10
 70
     1
102
RTVSPropertyOp11
 70
     1
102
RTVSPropertyOp12
 70
     1
102
RTVSPropertyOp13
 70
     1
102
RTVSPropertyOp14
 70
     1
102
RTVSPropertyOp15
 70
     1
102
RTVSPropertyOp16
 70
     1
102
RTVSPropertyOp17
 70
     1
102
RTVSPropertyOp18
 70
     1
102
RTVSPropertyOp19
 70
     1
102
RTVSPropertyOp20
 70
     1
102
RTVSPropertyOp21
 70
     1
102
RTVSPropertyOp22
 70
     1
102
RTVSPropertyOp23
 70
     1
102
RTVSPropertyOp24
 70
     1
102
RTVSPropertyOp25
 70
     1
102
RTVSPropertyOp26
 70
     1
102
RTVSPropertyOp27
 70
     1
102
RTVSPropertyOp28
 70
     1
102
RTVSPropertyOp29
 70
     1
102
RTVSPropertyOp30
 70
     1
102
RTVSPropertyOp31
 70
     1
102
RTVSPropertyOp32
 70
     1
  0
XRECORD
  5
388
102
{ACAD_REACTORS
330
387
102
}
330
387
100
AcDbXrecord
280
     1
102
RTVSPropertyOp0
 70
     1
102
RTVSPropertyOp1
 70
     1
102
RTVSPropertyOp2
 70
     1
102
RTVSPropertyOp3
 70
     1
102
RTVSPropertyOp4
 70
     1
102
RTVSPropertyOp5
 70
     1
102
RTVSPropertyOp6
 70
     1
102
RTVSPropertyOp7
 70
     1
102
RTVSPropertyOp8
 70
     1
102
RTVSPropertyOp9
 70
     1
102
RTVSPropertyOp10
 70
     1
102
RTVSPropertyOp11
 70
     1
102
RTVSPropertyOp12
 70
     1
102
RTVSPropertyOp13
 70
     1
102
RTVSPropertyOp14
 70
     1
102
RTVSPropertyOp15
 70
     1
102
RTVSPropertyOp16
 70
     1
102
RTVSPropertyOp17
 70
     1
102
RTVSPropertyOp18
 70
     1
102
RTVSPropertyOp19
 70
     1
102
RTVSPropertyOp20
 70
     1
102
RTVSPropertyOp21
 70
     1
102
RTVSPropertyOp22
 70
     1
102
RTVSPropertyOp23
 70
     1
102
RTVSPropertyOp24
 70
     1
102
RTVSPropertyOp25
 70
     1
102
RTVSPropertyOp26
 70
     1
102
RTVSPropertyOp27
 70
     1
102
RTVSPropertyOp28
 70
     1
102
RTVSPropertyOp29
 70
     1
102
RTVSPropertyOp30
 70
     1
102
RTVSPropertyOp31
 70
     1
102
RTVSPropertyOp32
 70
     1
  0
XRECORD
  5
390
102
{ACAD_REACTORS
330
38F
102
}
330
38F
100
AcDbXrecord
280
     1
102
RTVSPropertyOp0
 70
     1
102
RTVSPropertyOp1
 70
     1
102
RTVSPropertyOp2
 70
     1
102
RTVSPropertyOp3
 70
     1
102
RTVSPropertyOp4
 70
     1
102
RTVSPropertyOp5
 70
     1
102
RTVSPropertyOp6
 70
     1
102
RTVSPropertyOp7
 70
     1
102
RTVSPropertyOp8
 70
     1
102
RTVSPropertyOp9
 70
     1
102
RTVSPropertyOp10
 70
     1
102
RTVSPropertyOp11
 70
     1
102
RTVSPropertyOp12
 70
     1
102
RTVSPropertyOp13
 70
     1
102
RTVSPropertyOp14
 70
     1
102
RTVSPropertyOp15
 70
     1
102
RTVSPropertyOp16
 70
     1
102
RTVSPropertyOp17
 70
     1
102
RTVSPropertyOp18
 70
     1
102
RTVSPropertyOp19
 70
     1
102
RTVSPropertyOp20
 70
     1
102
RTVSPropertyOp21
 70
     1
102
RTVSPropertyOp22
 70
     1
102
RTVSPropertyOp23
 70
     1
102
RTVSPropertyOp24
 70
     1
102
RTVSPropertyOp25
 70
     1
102
RTVSPropertyOp26
 70
     1
102
RTVSPropertyOp27
 70
     1
102
RTVSPropertyOp28
 70
     1
102
RTVSPropertyOp29
 70
     1
102
RTVSPropertyOp30
 70
     1
102
RTVSPropertyOp31
 70
     1
102
RTVSPropertyOp32
 70
     1
  0
ENDSEC
  0
EOF
